<?xml version="1.0" standalone="no"?>
<!DOCTYPE svg PUBLIC "-//W3C//DTD SVG 1.1//EN" "http://www.w3.org/Graphics/SVG/1.1/DTD/svg11.dtd" >
<svg xmlns="http://www.w3.org/2000/svg" xmlns:xlink="http://www.w3.org/1999/xlink" version="1.1">
<metadata>
Created by FontForge 20170731 at Thu Nov 12 14:16:03 2020
 By Aleksey,,,
Copyright (c) 2018 by www.fontiran.com (Moslem Ebrahimi). All rights reserved.
</metadata>
<defs>
<font id="Javan" horiz-adv-x="0" >
  <font-face 
    font-family="Javan"
    font-weight="400"
    font-stretch="normal"
    units-per-em="2300"
    panose-1="2 11 5 6 3 8 4 2 2 4"
    ascent="1840"
    descent="-460"
    x-height="1076"
    cap-height="1210"
    bbox="-988 -1797 5642 2914"
    underline-thickness="100"
    underline-position="-750"
    unicode-range="U+0020-FEFF"
  />
<missing-glyph horiz-adv-x="1229" 
d="M102 -362v1806h1024v-1806h-1024zM217 -248h795v1577h-795v-1577z" />
    <glyph glyph-name="uniFDF2" unicode="&#xfedf;&#xfee0;&#x651;&#x64e;&#xfeea;" horiz-adv-x="2635" arabic-form="isolated" 
d="M1263 -9q107 0 227 40.5t194 141.5q105 -111 250 -153q73 -21 147 -21q71 0 144 20q224 63 290 338q22 110 22 288q0 15 -1 122t-23 293.5t-58 268.5q-63 26 -126 26q-17 0 -65 -5.5t-104 -21.5q24 -246 36 -384q19 -219 19 -361q0 -211 -39.5 -329t-115.5 -122
q-60 4 -104 38q-71 50 -122 141t-51 265l1 73q0 181 -21 383t-62 297q-63 26 -126 26q-17 0 -65 -5.5t-104 -21.5q24 -246 36 -384q19 -223 19 -367q0 -189 -34 -307t-103 -134q-66 14 -122 72.5t-84 154.5q-23 84 -41 168q-26 131 -67.5 250t-129.5 207t-255 129
q-64 14 -126 14q-56 0 -142.5 -17t-178.5 -90t-135 -195q-36 -112 -36 -193q0 -50 26 -118t126 -100q67 -21 148 -21q40 0 126.5 10.5t212.5 57.5l135 56q54 -183 94.5 -282.5t107.5 -161.5q101 -86 280 -86zM1520 1917q-14 0 -35.5 1.5t-30.5 14.5l-11 474q7 22 38 27
q14 2 28 2q18 0 44.5 -4.5t44.5 -12.5q-3 -73 -3 -386v-110q-45 -6 -75 -6zM1344 1487q-29 0 -76 12t-79 86q-14 43 -14 93q0 52 15 111q7 32 18 48t40 22t59 6q24 0 49 -4q-9 -25 -18 -73q-7 -35 -7 -70l1 -24q7 -99 64 -131q48 12 60 63q8 33 8 69q0 21 -5.5 62.5
t-15.5 79.5q62 33 146 36l8 -19q14 -36 39 -92.5t50 -100t41 -43.5q13 30 13 62q0 23 -12 64t-33 80l-11 24q35 25 69 32q19 3 43 3q20 0 44 -2q48 -95 48 -169q0 -20 -4 -40q-17 -66 -73 -104q-62 -41 -133 -41q-67 0 -119 39q-54 -43 -129 -65q-44 -14 -86 -14zM382 522
q-13 36 -13 93q0 19 3.5 71.5t26.5 138.5t56 140q27 44 55 44q7 0 13 -2q53 -26 135 -199l54 -120q6 -11 10 -23q-21 -17 -94 -51t-147.5 -63t-98.5 -29z" />
    <glyph glyph-name="uniFDFC" unicode="&#x631;&#xfef3;&#xfe8e;&#x644;" horiz-adv-x="2899" arabic-form="isolated" 
d="M606 -574q-78 0 -162 16q-201 42 -309 156q-128 134 -128 324q0 126 69 271.5t238 281.5l8 7q46 37 100 69q60 36 134 36q138 0 188 -65q-12 -16 -49 -46t-82 -66q-76 -58 -119 -96q-159 -156 -192 -299q-13 -54 -13 -103q0 -81 44.5 -167.5t148.5 -134.5q60 -27 123 -27
q46 0 128 25t168 165.5t105 410.5q3 49 3 102q0 243 -70 589l-9 40q-11 34 -11 56q0 18 11 34.5t104 21.5l25 1q88 0 165 -38q99 -396 99 -661q0 -60 -8.5 -183.5t-79.5 -315.5q-48 -125 -160 -226.5t-274 -149.5q-92 -28 -195 -28zM1508 -429q-98 0 -156 98q-30 51 -30 107
q0 15 6 58.5t83 93.5q58 32 107 32q97 0 148 -101q24 -49 24 -101q0 -20 -7.5 -66.5t-76.5 -91.5q-51 -29 -98 -29zM1891 -482q-104 0 -149 106q-18 43 -18 88q0 26 11.5 76t82.5 93q53 28 99 28q28 0 74 -20t78 -88q22 -48 22 -97q0 -22 -9 -69t-82 -88q-60 -29 -109 -29z
M1848 -1q-76 0 -151 20q-102 29 -178.5 110.5t-110.5 227.5q-23 110 -23 289q0 14 1 121t23 293.5t59 268.5q63 26 125 26q17 0 65.5 -5.5t103.5 -21.5q-24 -246 -36 -384q-19 -219 -19 -361q0 -128 16.5 -235.5t57.5 -162t93 -54.5h13q132 0 171 302q13 102 17 207
q3 57 6 83q79 26 140 26q166 0 166 -169q0 -30 -5 -66q-20 -124 -89.5 -239.5t-173.5 -192t-227 -82.5zM2342 -530q-41 0 -111.5 17.5t-123.5 56.5q38 78 123.5 283.5t164 407.5t96.5 270q34 45 107 45q58 0 120.5 -21t96.5 -47q-86 -285 -211 -584.5t-207 -420.5
q-25 -7 -55 -7z" />
    <glyph glyph-name="uniFEF5" unicode="&#xfedf;&#xfe82;&#x621;&#x621;" horiz-adv-x="1074" arabic-form="isolated" 
d="M938 1456v0q9 -209 -20 -478t-89 -507t-144 -353q-44 -60 -115 -94.5t-181 -18.5q-125 21 -181 80.5t-70.5 154.5t-11.5 220q-1 77 -4 224q-4 188 -6 415t6 412.5t35 248.5q69 31 132 16.5t128 -45.5q6 -2 11 -5l-1 -1491q85 100 131.5 290t65 415t19.5 430t-6 335
q113 34 178 5t92.5 -98t30.5 -156zM-477 1955v0q5 100 74 199t160 145q126 57 223 41.5t173 -71.5t140 -119q69 -71 133.5 -110t133.5 -2q62 40 100 113.5t65 151.5q18 48 36 89q99 16 170 -14t114 -91q-16 -81 -67.5 -173t-90.5 -139q-94 -110 -213 -135t-237 16.5
t-210 131.5q-141 141 -214.5 167t-112 -37t-77.5 -189q-5 -16 -11 -32q-89 -24 -164.5 -6t-124.5 64z" />
    <glyph glyph-name="uniFEF6" unicode="&#xfee0;&#xfe82;&#x621;&#x621;" horiz-adv-x="1478" arabic-form="final" 
d="M1197 131v0h30v0h1q28 0 47 -19t19 -47q0 -27 -19 -46.5t-47 -19.5l-1 1h-9q-106 -1 -180 37.5t-127 97t-94 117.5q-20 28 -39 52q-21 -31 -44 -79q-29 -61 -72.5 -124.5t-116 -101t-186.5 -20.5q-125 20 -181 80t-70.5 154.5t-11.5 220.5q-1 77 -4 224q-4 188 -6 415
t6 412.5t35 247.5q69 32 132 17.5t128 -45.5q6 -2 11 -5l-1 -1491q82 96 129.5 287t68 418.5t21.5 433t-9 331.5q146 42 211 -16t81.5 -167t15.5 -219q1 -13 1 -25q1 -56 9.5 -184t27.5 -286.5t51 -306.5t79.5 -244t113.5 -100zM-480 1954v0q5 100 74 199t160 145
q126 57 223 41.5t173 -71.5t140 -119q69 -71 133.5 -110t133.5 -2q62 40 100 113.5t65 151.5q18 48 36 89q99 16 170 -14t114 -91q-16 -81 -67.5 -173t-90.5 -139q-94 -110 -213 -135t-237 16.5t-210 131.5q-141 141 -214.5 167t-112 -37t-77.5 -189q-5 -16 -11 -32
q-89 -24 -164.5 -6t-124.5 64z" />
    <glyph glyph-name="uniFEF7" unicode="&#xfedf;&#xfe84;&#x621;&#x621;" horiz-adv-x="1270" arabic-form="isolated" 
d="M829 1456v0q9 -209 -20 -478t-89 -507t-144 -353q-44 -60 -115 -94.5t-181 -18.5q-125 21 -181 80.5t-70.5 154.5t-11.5 220q-1 77 -4 224q-4 188 -6 415t6 412.5t35 248.5q69 31 132 16.5t128 -45.5q6 -2 11 -5l-1 -1491q85 100 131.5 290t65 415t19.5 430t-6 335
q113 34 178 5t92.5 -98t30.5 -156zM-53 1796l-3 3q-68 74 -68 101q0 6 2 10q74 77 135 107q-79 52 -99 136q-5 19 -5 38q0 64 55 126q72 68 165 87q33 6 60 6q49 0 77 -21q16 -15 16 -53q0 -73 -80 -85l-21 1q-67 0 -102 -31q-42 -38 -42 -92q0 -23 8 -34h11q47 0 92 24.5
t86 58.5l25 18l9 1q18 0 37 -20t34 -51.5t19 -50.5q-47 -22 -133.5 -77.5t-167 -113.5t-110.5 -88z" />
    <glyph glyph-name="uniFEF8" unicode="&#xfee0;&#xfe84;&#x621;&#x621;" horiz-adv-x="1122" arabic-form="final" 
d="M1118 131v0h30v0h1q28 0 47 -19t19 -47q0 -27 -19 -46.5t-47 -19.5l-1 1h-9q-106 -1 -180 37.5t-127 97t-94 117.5q-20 28 -39 52q-21 -31 -44 -79q-29 -61 -72.5 -124.5t-116 -101t-186.5 -20.5q-125 20 -181 80t-70.5 154.5t-11.5 220.5q-1 77 -4 224q-4 188 -6 415
t6 412.5t35 247.5q69 32 132 17.5t128 -45.5q6 -2 11 -5l-1 -1491q82 96 129.5 287t68 418.5t21.5 433t-9 331.5q146 42 211 -16t81.5 -167t15.5 -219q1 -13 1 -25q1 -56 9.5 -184t27.5 -286.5t51 -306.5t79.5 -244t113.5 -100zM-28 1783l-3 3q-68 74 -68 101q0 6 2 10
q74 77 135 107q-79 52 -99 136q-5 19 -5 38q0 64 55 126q72 68 165 87q33 6 60 6q49 0 77 -21q16 -15 16 -53q0 -73 -80 -85l-21 1q-67 0 -102 -31q-42 -38 -42 -92q0 -23 8 -34h11q47 0 92 24.5t86 58.5l25 18l9 1q18 0 37 -20t34 -51.5t19 -50.5q-47 -22 -133.5 -77.5
t-167 -113.5t-110.5 -88z" />
    <glyph glyph-name="uniFEF9" unicode="&#xfedf;&#xfe88;&#x621;&#x621;" horiz-adv-x="944" arabic-form="isolated" 
d="M829 1456v0q9 -209 -20 -478t-89 -507t-144 -353q-44 -60 -115 -94.5t-181 -18.5q-125 21 -181 80.5t-70.5 154.5t-11.5 220q-1 77 -4 224q-4 188 -6 415t6 412.5t35 248.5q69 31 132 16.5t128 -45.5q6 -2 11 -5l-1 -1491q85 100 131.5 290t65 415t19.5 430t-6 335
q113 34 178 5t92.5 -98t30.5 -156zM84 -684l-3 3q-68 74 -68 101q0 6 2 10q74 77 135 107q-79 52 -99 136q-5 19 -5 38q0 64 55 126q72 68 165 87q33 6 60 6q49 0 77 -21q16 -15 16 -53q0 -73 -80 -85l-21 1q-67 0 -102 -31q-42 -38 -42 -92q0 -23 8 -34h11q47 0 92 24.5
t86 58.5l25 18l9 1q18 0 37 -20t34 -51.5t19 -50.5q-47 -22 -133.5 -77.5t-167 -113.5t-110.5 -88z" />
    <glyph glyph-name="uniFEFA" unicode="&#xfee0;&#xfe88;&#x621;&#x621;" horiz-adv-x="1122" arabic-form="final" 
d="M1118 131v0h30v0h1q28 0 47 -19t19 -47q0 -27 -19 -46.5t-47 -19.5l-1 1h-9q-106 -1 -180 37.5t-127 97t-94 117.5q-20 28 -39 52q-21 -31 -44 -79q-29 -61 -72.5 -124.5t-116 -101t-186.5 -20.5q-125 20 -181 80t-70.5 154.5t-11.5 220.5q-1 77 -4 224q-4 188 -6 415
t6 412.5t35 247.5q69 32 132 17.5t128 -45.5q6 -2 11 -5l-1 -1491q82 96 129.5 287t68 418.5t21.5 433t-9 331.5q146 42 211 -16t81.5 -167t15.5 -219q1 -13 1 -25q1 -56 9.5 -184t27.5 -286.5t51 -306.5t79.5 -244t113.5 -100zM80 -696l-3 3q-68 74 -68 101q0 6 2 10
q74 77 135 107q-79 52 -99 136q-5 19 -5 38q0 64 55 126q72 68 165 87q33 6 60 6q49 0 77 -21q16 -15 16 -53q0 -73 -80 -85l-21 1q-67 0 -102 -31q-42 -38 -42 -92q0 -23 8 -34h11q47 0 92 24.5t86 58.5l25 18l9 1q18 0 37 -20t34 -51.5t19 -50.5q-47 -22 -133.5 -77.5
t-167 -113.5t-110.5 -88z" />
    <glyph glyph-name="uniFEFB" unicode="&#xfedf;&#xfe8e;&#x621;&#x621;" horiz-adv-x="935" arabic-form="isolated" 
d="M829 1456v0q9 -209 -20 -478t-89 -507t-144 -353q-44 -60 -115 -94.5t-181 -18.5q-125 21 -181 80.5t-70.5 154.5t-11.5 220q-1 77 -4 224q-4 188 -6 415t6 412.5t35 248.5q69 31 132 16.5t128 -45.5q6 -2 11 -5l-1 -1491q85 100 131.5 290t65 415t19.5 430t-6 335
q113 34 178 5t92.5 -98t30.5 -156z" />
    <glyph glyph-name="uniFEFC" unicode="&#xfee0;&#xfe8e;&#x621;&#x621;" horiz-adv-x="1122" arabic-form="final" 
d="M1118 131v0h30v0h1q28 0 47 -19t19 -47q0 -27 -19 -46.5t-47 -19.5l-1 1h-9q-106 -1 -180 37.5t-127 97t-94 117.5q-20 28 -39 52q-21 -31 -44 -79q-29 -61 -72.5 -124.5t-116 -101t-186.5 -20.5q-125 20 -181 80t-70.5 154.5t-11.5 220.5q-1 77 -4 224q-4 188 -6 415
t6 412.5t35 247.5q69 32 132 17.5t128 -45.5q6 -2 11 -5l-1 -1491q82 96 129.5 287t68 418.5t21.5 433t-9 331.5q146 42 211 -16t81.5 -167t15.5 -219q1 -13 1 -25q1 -56 9.5 -184t27.5 -286.5t51 -306.5t79.5 -244t113.5 -100z" />
    <glyph glyph-name="uni06440671.isol" unicode="&#xfedf;&#xfb51;&#x621;&#x621;" horiz-adv-x="935" 
d="M829 1456v0q9 -209 -20 -478t-89 -507t-144 -353q-44 -60 -115 -94.5t-181 -18.5q-125 21 -181 80.5t-70.5 154.5t-11.5 220q-1 77 -4 224q-4 188 -6 415t6 412.5t35 248.5q69 31 132 16.5t128 -45.5q6 -2 11 -5l-1 -1491q85 100 131.5 290t65 415t19.5 430t-6 335
q113 34 178 5t92.5 -98t30.5 -156zM132 2022q85 8 150 87q60 73 60 164v14q-6 74 -37 74q-22 0 -58 -40q-47 -57 -78 -141.5t-37 -157.5zM80 1846q-26 0 -51 13q-13 25 -13 68q0 23 2 46v9q-47 25 -117 38q-27 5 -54 5q-45 0 -89 -13q-9 -2 -16 -2q-11 0 -19.5 6.5
t-8.5 15.5q0 5 4 15.5t39 22.5q43 11 89 11q84 0 180 -36l1 11q19 93 55 175.5t87 136.5q45 45 120 45q40 0 84.5 -18.5t66.5 -72.5q11 -32 11 -64q0 -29 -9 -58q-17 -57 -50.5 -101.5t-65.5 -65.5q-113 -69 -192 -69h-8q-5 -10 -5 -51q0 -39 3 -58q-22 -9 -44 -9z" />
    <glyph glyph-name="uni06440671.fina" unicode="&#xfee0;&#xfb51;&#x621;&#x621;" horiz-adv-x="1201" 
d="M1195 131v0h30v0h1q28 0 47 -19t19 -47q0 -27 -19 -46.5t-47 -19.5l-1 1h-9q-106 -1 -180 37.5t-127 97t-94 117.5q-20 28 -39 52q-21 -31 -44 -79q-29 -61 -72.5 -124.5t-116 -101t-186.5 -20.5q-125 20 -181 80t-70.5 154.5t-11.5 220.5q-1 77 -4 224q-4 188 -6 415
t6 412.5t35 247.5q69 32 132 17.5t128 -45.5q6 -2 11 -5l-1 -1491q82 96 129.5 287t68 418.5t21.5 433t-9 331.5q146 42 211 -16t81.5 -167t15.5 -219q1 -13 1 -25q1 -56 9.5 -184t27.5 -286.5t51 -306.5t79.5 -244t113.5 -100zM263 2010q85 8 150 87q60 73 60 164v14
q-6 74 -37 74q-22 0 -58 -40q-47 -57 -78 -141.5t-37 -157.5zM211 1834q-26 0 -51 13q-13 25 -13 68q0 23 2 46v9q-47 25 -117 38q-27 5 -54 5q-45 0 -89 -13q-9 -2 -16 -2q-11 0 -19.5 6.5t-8.5 15.5q0 5 4 15.5t39 22.5q43 11 89 11q84 0 180 -36l1 11q19 93 55 175.5
t87 136.5q45 45 120 45q40 0 84.5 -18.5t66.5 -72.5q11 -32 11 -64q0 -29 -9 -58q-17 -57 -50.5 -101.5t-65.5 -65.5q-113 -69 -192 -69h-8q-5 -10 -5 -51q0 -39 3 -58q-22 -9 -44 -9z" />
    <glyph glyph-name="uni470" unicode="&#xfe92;&#xfbfd;&#x621;&#x621;" horiz-adv-x="1601" 
d="M684 -862q-133 0 -279 40t-260 165.5t-136 344.5q-1 21 -1 43q0 132 55.5 291t149.5 301.5t188 206.5q72 -5 113.5 -20.5t91.5 -45.5l18 -10q-11 -51 -44.5 -103t-78.5 -111q-75 -91 -142 -212t-82 -288q-2 -35 -2 -67q0 -206 85.5 -309.5t234.5 -103.5q145 0 299.5 69.5
t270.5 173t144 202.5q10 42 10 74q0 62 -35 89q-45 35 -113 35q-13 0 -63.5 -4t-125.5 -31.5t-92 -44.5q-99 8 -213 76q26 15 89.5 74t133 163.5t112.5 256.5q33 116 33 261q0 46 -3 95v15q0 63 30 80q17 9 39 9q23 0 64 -14t95 -47q53 -78 53 -189v-19l1 -1v-7
q0 -174 51 -265t122 -141q50 -38 117 -39q28 0 47 -19t19 -47q0 -27 -19 -46.5t-47 -19.5l-1 1q-126 0 -224.5 49.5t-170.5 131.5q-39 -85 -76 -146q140 -6 245.5 -64t156.5 -151q36 -64 36 -137q0 -32 -15 -103t-131 -178q-117 -104 -288 -172.5t-359 -86.5q-52 -5 -103 -5
zM1454 -1075q-108 0 -158 107q-19 42 -19 87q0 28 7 58q24 75 93 110q44 23 89 23q27 0 77.5 -14.5t89.5 -107.5q15 -39 15 -78q0 -29 -12.5 -76.5t-82.5 -84.5q-53 -24 -99 -24z" />
    <glyph glyph-name="uni471" unicode="&#xfb59;&#xfbfd;&#x621;&#x621;" horiz-adv-x="1601" 
d="M684 -862q-133 0 -279 40t-260 165.5t-136 344.5q-1 21 -1 43q0 132 55.5 291t149.5 301.5t188 206.5q72 -5 113.5 -20.5t91.5 -45.5l18 -10q-11 -51 -44.5 -103t-78.5 -111q-75 -91 -142 -212t-82 -288q-2 -35 -2 -67q0 -206 85.5 -309.5t234.5 -103.5q145 0 299.5 69.5
t270.5 173t144 202.5q10 42 10 74q0 62 -35 89q-45 35 -113 35q-13 0 -63.5 -4t-125.5 -31.5t-92 -44.5q-99 8 -213 76q26 15 89.5 74t133 163.5t112.5 256.5q33 116 33 261q0 46 -3 95v15q0 63 30 80q17 9 39 9q23 0 64 -14t95 -47q53 -78 53 -189v-19l1 -1v-7
q0 -174 51 -265t122 -141q50 -38 117 -39q28 0 47 -19t19 -47q0 -27 -19 -46.5t-47 -19.5l-1 1q-126 0 -224.5 49.5t-170.5 131.5q-39 -85 -76 -146q140 -6 245.5 -64t156.5 -151q36 -64 36 -137q0 -32 -15 -103t-131 -178q-117 -104 -288 -172.5t-359 -86.5q-52 -5 -103 -5
zM1531 -1593q-69 0 -119 42.5t-60 120.5q-2 17 -2 33q0 61 33.5 124t118.5 87q33 7 62 7q62 0 114.5 -41t66.5 -122q4 -21 4 -42q0 -57 -33.5 -119t-130.5 -85q-29 -5 -54 -5zM1628 -1087q-71 0 -120 43q-58 53 -58 152q0 59 31.5 121t108.5 88q34 9 63 9q57 0 111 -40.5
t74 -122.5q7 -27 7 -54q0 -160 -174 -193q-23 -3 -43 -3zM1181 -1216q-65 0 -115 41t-62 119q-3 21 -3 41q0 56 29 117.5t109 86.5q38 9 70 9q59 0 111.5 -39t67.5 -120q5 -25 5 -49q0 -53 -30.5 -114.5t-122.5 -85.5q-32 -6 -59 -6z" />
    <glyph glyph-name="uni472" unicode="&#xfe98;&#xfbfd;&#x621;&#x621;" horiz-adv-x="1601" 
d="M684 -862q-133 0 -279 40t-260 165.5t-136 344.5q-1 21 -1 43q0 132 55.5 291t149.5 301.5t188 206.5q72 -5 113.5 -20.5t91.5 -45.5l18 -10q-11 -51 -44.5 -103t-78.5 -111q-75 -91 -142 -212t-82 -288q-2 -35 -2 -67q0 -206 85.5 -309.5t234.5 -103.5q145 0 299.5 69.5
t270.5 173t144 202.5q10 42 10 74q0 62 -35 89q-45 35 -113 35q-13 0 -63.5 -4t-125.5 -31.5t-92 -44.5q-99 8 -213 76q26 15 89.5 74t133 163.5t112.5 256.5q33 116 33 261q0 46 -3 95v15q0 63 30 80q17 9 39 9q23 0 64 -14t95 -47q53 -78 53 -189v-19l1 -1v-7
q0 -174 51 -265t122 -141q50 -38 117 -39q28 0 47 -19t19 -47q0 -27 -19 -46.5t-47 -19.5l-1 1q-126 0 -224.5 49.5t-170.5 131.5q-39 -85 -76 -146q140 -6 245.5 -64t156.5 -151q36 -64 36 -137q0 -32 -15 -103t-131 -178q-117 -104 -288 -172.5t-359 -86.5q-52 -5 -103 -5
zM749 872q-49 0 -109 29q-73 41 -87 113q-4 22 -4 44q0 49 27.5 107t93.5 87q26 11 54 11q45 0 98 -28q94 -57 94 -169q0 -45 -23.5 -100.5t-89.5 -83.5q-25 -10 -54 -10zM1133 925q-47 0 -98 29q-70 45 -81 119q-3 19 -3 39q0 52 28.5 110t95.5 83q23 9 49 9q49 0 106 -32
q76 -50 87 -122q2 -15 2 -30q0 -56 -34 -113.5t-102 -82.5q-24 -9 -50 -9z" />
    <glyph glyph-name="uni473" unicode="&#xfe9c;&#xfbfd;&#x621;&#x621;" horiz-adv-x="1601" 
d="M684 -862q-133 0 -279 40t-260 165.5t-136 344.5q-1 21 -1 43q0 132 55.5 291t149.5 301.5t188 206.5q72 -5 113.5 -20.5t91.5 -45.5l18 -10q-11 -51 -44.5 -103t-78.5 -111q-75 -91 -142 -212t-82 -288q-2 -35 -2 -67q0 -206 85.5 -309.5t234.5 -103.5q145 0 299.5 69.5
t270.5 173t144 202.5q10 42 10 74q0 62 -35 89q-45 35 -113 35q-13 0 -63.5 -4t-125.5 -31.5t-92 -44.5q-99 8 -213 76q26 15 89.5 74t133 163.5t112.5 256.5q33 116 33 261q0 46 -3 95v15q0 63 30 80q17 9 39 9q23 0 64 -14t95 -47q53 -78 53 -189v-19l1 -1v-7
q0 -174 51 -265t122 -141q50 -38 117 -39q28 0 47 -19t19 -47q0 -27 -19 -46.5t-47 -19.5l-1 1q-126 0 -224.5 49.5t-170.5 131.5q-39 -85 -76 -146q140 -6 245.5 -64t156.5 -151q36 -64 36 -137q0 -32 -15 -103t-131 -178q-117 -104 -288 -172.5t-359 -86.5q-52 -5 -103 -5
zM872 1325q-63 0 -115 41t-66 121q-4 21 -4 42q0 57 34 119.5t130 84.5q30 5 56 5q67 0 117 -42t60 -121q2 -17 2 -33q0 -61 -33.5 -123.5t-117.5 -86.5q-34 -7 -63 -7zM782 820q-57 0 -110.5 40.5t-73.5 121.5q-6 27 -6 54q0 52 32 112t141 82q23 3 43 3q72 0 120 -43
q58 -54 58 -149q0 -62 -31.5 -124t-107.5 -88q-34 -9 -65 -9zM1227 948q-59 0 -111 39t-68 119q-5 25 -5 49q0 54 30.5 115.5t122.5 85.5q31 6 58 6q65 0 115.5 -41t62.5 -120q3 -21 3 -41q0 -56 -29 -117.5t-108 -85.5q-38 -9 -71 -9z" />
    <glyph glyph-name="uni475" unicode="&#xfbff;&#xfbfd;&#x621;&#x621;" horiz-adv-x="1601" 
d="M684 -862q-133 0 -279 40t-260 165.5t-136 344.5q-1 21 -1 43q0 132 55.5 291t149.5 301.5t188 206.5q72 -5 113.5 -20.5t91.5 -45.5l18 -10q-11 -51 -44.5 -103t-78.5 -111q-75 -91 -142 -212t-82 -288q-2 -35 -2 -67q0 -206 85.5 -309.5t234.5 -103.5q145 0 299.5 69.5
t270.5 173t144 202.5q10 42 10 74q0 62 -35 89q-45 35 -113 35q-13 0 -63.5 -4t-125.5 -31.5t-92 -44.5q-99 8 -213 76q26 15 89.5 74t133 163.5t112.5 256.5q33 116 33 261q0 46 -3 95v15q0 63 30 80q17 9 39 9q23 0 64 -14t95 -47q53 -78 53 -189v-19l1 -1v-7
q0 -174 51 -265t122 -141q50 -38 117 -39q28 0 47 -19t19 -47q0 -27 -19 -46.5t-47 -19.5l-1 1q-126 0 -224.5 49.5t-170.5 131.5q-39 -85 -76 -146q140 -6 245.5 -64t156.5 -151q36 -64 36 -137q0 -32 -15 -103t-131 -178q-117 -104 -288 -172.5t-359 -86.5q-52 -5 -103 -5
zM760 613q-108 0 -158 107q-19 42 -19 87q0 28 7 58q24 75 93 110q44 23 89 23q27 0 77.5 -14.5t89.5 -107.5q15 -39 15 -78q0 -29 -12.5 -76.5t-82.5 -84.5q-53 -24 -99 -24z" />
    <glyph glyph-name="uni476" unicode="&#xfe92;&#xfbfd;&#x621;&#x621;&#x621;" horiz-adv-x="1999" 
d="M1829 -903q-108 0 -158 107q-19 42 -19 87q0 28 7 58q24 75 93 110q44 23 89 23q27 0 77.5 -14.5t89.5 -107.5q15 -39 15 -78q0 -29 -12.5 -76.5t-82.5 -84.5q-53 -24 -99 -24zM797 -1043q-46 0 -92 4q-239 23 -421 151t-250 345q-28 88 -28 188q0 147 60 321
q73 182 244.5 393t329.5 339q34 31 88 31q9 0 47 -3.5t169 -71.5q-53 -81 -169 -192q-96 -92 -199.5 -210.5t-183.5 -271.5q-92 -189 -92 -369q0 -55 22.5 -198.5t187.5 -274.5q82 -59 182 -59q16 0 84 6t185.5 63t208 129t127.5 127q53 84 53 160q0 4 -1 46.5t-44 105
t-107 98.5q-126 68 -245 97q-26 8 -45 26q-14 13 -14 27q0 6 4 18.5t55 26.5q216 72 314 187t126.5 269t33.5 342l35 1q132 0 239 -47q9 -71 9 -136l-1 -42q0 -179 51.5 -271t121.5 -142q51 -38 118 -39q27 0 46.5 -19t19.5 -47q0 -27 -19.5 -46.5t-46.5 -19.5l-2 1
q-128 1 -228.5 52.5t-179.5 143.5q-77 -114 -167 -177t-158 -80q75 -23 174 -84t164 -162q45 -71 45 -162q0 -39 -8 -82q-37 -146 -219 -280q-165 -124 -351 -175q-138 -37 -273 -37z" />
    <glyph glyph-name="uni477" unicode="&#xfb59;&#xfbfd;&#x621;&#x621;&#x621;" horiz-adv-x="1996" 
d="M1669 -1756q-69 0 -119 42.5t-60 120.5q-2 17 -2 33q0 61 33.5 124t118.5 87q33 7 62 7q62 0 114.5 -41t66.5 -122q4 -21 4 -42q0 -57 -33.5 -119t-130.5 -85q-29 -5 -54 -5zM1766 -1250q-71 0 -120 43q-58 53 -58 152q0 59 31.5 121t108.5 88q34 9 63 9q57 0 111 -40.5
t74 -122.5q7 -27 7 -54q0 -160 -174 -193q-23 -3 -43 -3zM1319 -1379q-65 0 -115 41t-62 119q-3 21 -3 41q0 56 29 117.5t109 86.5q38 9 70 9q59 0 111.5 -39t67.5 -120q5 -25 5 -49q0 -53 -30.5 -114.5t-122.5 -85.5q-32 -6 -59 -6zM797 -1043q-46 0 -92 4
q-239 23 -421 151t-250 345q-28 88 -28 188q0 147 60 321q73 182 244.5 393t329.5 339q34 31 88 31q9 0 47 -3.5t169 -71.5q-53 -81 -169 -192q-96 -92 -199.5 -210.5t-183.5 -271.5q-92 -189 -92 -369q0 -55 22.5 -198.5t187.5 -274.5q82 -59 182 -59q16 0 84 6t185.5 63
t208 129t127.5 127q53 84 53 160q0 4 -1 46.5t-44 105t-107 98.5q-126 68 -245 97q-26 8 -45 26q-14 13 -14 27q0 6 4 18.5t55 26.5q216 72 314 187t126.5 269t33.5 342l35 1q132 0 239 -47q9 -71 9 -136l-1 -42q0 -179 51.5 -271t121.5 -142q51 -38 118 -39q27 0 46.5 -19
t19.5 -47q0 -27 -19.5 -46.5t-46.5 -19.5l-2 1q-128 1 -228.5 52.5t-179.5 143.5q-77 -114 -167 -177t-158 -80q75 -23 174 -84t164 -162q45 -71 45 -162q0 -39 -8 -82q-37 -146 -219 -280q-165 -124 -351 -175q-138 -37 -273 -37z" />
    <glyph glyph-name="uni478" unicode="&#xfe98;&#xfbfd;&#x621;&#x621;&#x621;" horiz-adv-x="1999" 
d="M1156 826q-49 0 -109 29q-73 41 -87 113q-4 22 -4 44q0 49 27.5 107t93.5 87q26 11 54 11q45 0 98 -28q94 -57 94 -169q0 -45 -23.5 -100.5t-89.5 -83.5q-25 -10 -54 -10zM1540 879q-47 0 -98 29q-70 45 -81 119q-3 19 -3 39q0 52 28.5 110t95.5 83q23 9 49 9
q49 0 106 -32q76 -50 87 -122q2 -15 2 -30q0 -56 -34 -113.5t-102 -82.5q-24 -9 -50 -9zM797 -1043q-46 0 -92 4q-239 23 -421 151t-250 345q-28 88 -28 188q0 147 60 321q73 182 244.5 393t329.5 339q34 31 88 31q9 0 47 -3.5t169 -71.5q-53 -81 -169 -192
q-96 -92 -199.5 -210.5t-183.5 -271.5q-92 -189 -92 -369q0 -55 22.5 -198.5t187.5 -274.5q82 -59 182 -59q16 0 84 6t185.5 63t208 129t127.5 127q53 84 53 160q0 4 -1 46.5t-44 105t-107 98.5q-126 68 -245 97q-26 8 -45 26q-14 13 -14 27q0 6 4 18.5t55 26.5
q216 72 314 187t126.5 269t33.5 342l35 1q132 0 239 -47q9 -71 9 -136l-1 -42q0 -179 51.5 -271t121.5 -142q51 -38 118 -39q27 0 46.5 -19t19.5 -47q0 -27 -19.5 -46.5t-46.5 -19.5l-2 1q-128 1 -228.5 52.5t-179.5 143.5q-77 -114 -167 -177t-158 -80q75 -23 174 -84
t164 -162q45 -71 45 -162q0 -39 -8 -82q-37 -146 -219 -280q-165 -124 -351 -175q-138 -37 -273 -37z" />
    <glyph glyph-name="uni479" unicode="&#xfe9c;&#xfbfd;&#x621;&#x621;&#x621;" horiz-adv-x="1999" 
d="M1167 1279q-63 0 -115 41t-66 121q-4 21 -4 42q0 57 34 119.5t130 84.5q30 5 56 5q67 0 117 -42t60 -121q2 -17 2 -33q0 -61 -33.5 -123.5t-117.5 -86.5q-34 -7 -63 -7zM1077 774q-57 0 -110.5 40.5t-73.5 121.5q-6 27 -6 54q0 52 32 112t141 82q23 3 43 3q72 0 120 -43
q58 -54 58 -149q0 -62 -31.5 -124t-107.5 -88q-34 -9 -65 -9zM1522 902q-59 0 -111 39t-68 119q-5 25 -5 49q0 54 30.5 115.5t122.5 85.5q31 6 58 6q65 0 115.5 -41t62.5 -120q3 -21 3 -41q0 -56 -29 -117.5t-108 -85.5q-38 -9 -71 -9zM797 -1043q-46 0 -92 4
q-239 23 -421 151t-250 345q-28 88 -28 188q0 147 60 321q73 182 244.5 393t329.5 339q34 31 88 31q9 0 47 -3.5t169 -71.5q-53 -81 -169 -192q-96 -92 -199.5 -210.5t-183.5 -271.5q-92 -189 -92 -369q0 -55 22.5 -198.5t187.5 -274.5q82 -59 182 -59q16 0 84 6t185.5 63
t208 129t127.5 127q53 84 53 160q0 4 -1 46.5t-44 105t-107 98.5q-126 68 -245 97q-26 8 -45 26q-14 13 -14 27q0 6 4 18.5t55 26.5q216 72 314 187t126.5 269t33.5 342l35 1q132 0 239 -47q9 -71 9 -136l-1 -42q0 -179 51.5 -271t121.5 -142q51 -38 118 -39q27 0 46.5 -19
t19.5 -47q0 -27 -19.5 -46.5t-46.5 -19.5l-2 1q-128 1 -228.5 52.5t-179.5 143.5q-77 -114 -167 -177t-158 -80q75 -23 174 -84t164 -162q45 -71 45 -162q0 -39 -8 -82q-37 -146 -219 -280q-165 -124 -351 -175q-138 -37 -273 -37z" />
    <glyph glyph-name="uni480" unicode="&#xfbff;&#xfbfd;&#x621;&#x621;&#x621;" horiz-adv-x="1999" 
d="M1434 -1298q-49 0 -109 29q-73 41 -87 113q-4 22 -4 44q0 49 27.5 107t93.5 87q26 11 54 11q45 0 98 -28q94 -57 94 -169q0 -45 -23.5 -100.5t-89.5 -83.5q-25 -10 -54 -10zM1818 -1245q-47 0 -98 29q-70 45 -81 119q-3 19 -3 39q0 52 28.5 110t95.5 83q23 9 49 9
q49 0 106 -32q76 -50 87 -122q2 -15 2 -30q0 -56 -34 -113.5t-102 -82.5q-24 -9 -50 -9zM797 -1043q-46 0 -92 4q-239 23 -421 151t-250 345q-28 88 -28 188q0 147 60 321q73 182 244.5 393t329.5 339q34 31 88 31q9 0 47 -3.5t169 -71.5q-53 -81 -169 -192
q-96 -92 -199.5 -210.5t-183.5 -271.5q-92 -189 -92 -369q0 -55 22.5 -198.5t187.5 -274.5q82 -59 182 -59q16 0 84 6t185.5 63t208 129t127.5 127q53 84 53 160q0 4 -1 46.5t-44 105t-107 98.5q-126 68 -245 97q-26 8 -45 26q-14 13 -14 27q0 6 4 18.5t55 26.5
q216 72 314 187t126.5 269t33.5 342l35 1q132 0 239 -47q9 -71 9 -136l-1 -42q0 -179 51.5 -271t121.5 -142q51 -38 118 -39q27 0 46.5 -19t19.5 -47q0 -27 -19.5 -46.5t-46.5 -19.5l-2 1q-128 1 -228.5 52.5t-179.5 143.5q-77 -114 -167 -177t-158 -80q75 -23 174 -84
t164 -162q45 -71 45 -162q0 -39 -8 -82q-37 -146 -219 -280q-165 -124 -351 -175q-138 -37 -273 -37z" />
    <glyph glyph-name="uni481" unicode="&#xfee8;&#xfbfd;&#x621;&#x621;&#x621;" horiz-adv-x="2002" 
d="M1198 708q-108 0 -158 107q-19 42 -19 87q0 28 7 58q24 75 93 110q44 23 89 23q27 0 77.5 -14.5t89.5 -107.5q15 -39 15 -78q0 -29 -12.5 -76.5t-82.5 -84.5q-53 -24 -99 -24zM797 -1043q-46 0 -92 4q-239 23 -421 151t-250 345q-28 88 -28 188q0 147 60 321
q73 182 244.5 393t329.5 339q34 31 88 31q9 0 47 -3.5t169 -71.5q-53 -81 -169 -192q-96 -92 -199.5 -210.5t-183.5 -271.5q-92 -189 -92 -369q0 -55 22.5 -198.5t187.5 -274.5q82 -59 182 -59q16 0 84 6t185.5 63t208 129t127.5 127q53 84 53 160q0 4 -1 46.5t-44 105
t-107 98.5q-126 68 -245 97q-26 8 -45 26q-14 13 -14 27q0 6 4 18.5t55 26.5q216 72 314 187t126.5 269t33.5 342l35 1q132 0 239 -47q9 -71 9 -136l-1 -42q0 -179 51.5 -271t121.5 -142q51 -38 118 -39q27 0 46.5 -19t19.5 -47q0 -27 -19.5 -46.5t-46.5 -19.5l-2 1
q-128 1 -228.5 52.5t-179.5 143.5q-77 -114 -167 -177t-158 -80q75 -23 174 -84t164 -162q45 -71 45 -162q0 -39 -8 -82q-37 -146 -219 -280q-165 -124 -351 -175q-138 -37 -273 -37z" />
    <glyph glyph-name="uni482" unicode="&#xfe92;&#xfbfd;&#x621;&#x621;&#x621;&#x621;" horiz-adv-x="1400" 
d="M1207 -1015q-108 0 -158 107q-19 42 -19 87q0 28 7 58q24 75 93 110q44 23 89 23q27 0 77.5 -14.5t89.5 -107.5q15 -39 15 -78q0 -29 -12.5 -76.5t-82.5 -84.5q-53 -24 -99 -24zM672 -736q-51 0 -105 5q-226 27 -350 127q-210 167 -210 488q0 24 4.5 114t44 228t86.5 231
t78 111q40 7 74 7q73 0 193 -51l4 -2q-11 -67 -33.5 -128.5t-48.5 -123.5q-38 -85 -69.5 -181.5t-38.5 -219.5v-29q0 -215 86 -321q92 -112 233 -112q120 0 231 73.5t154 208.5q11 42 11 76q0 57 -39 105.5t-125 74.5t-169 35q-44 2 -57 13q-9 8 -9 18q0 16 22 49l12 21
q134 151 165 342q13 81 13 164q0 112 -24 229q22 14 87 14q52 0 109 -12.5t83 -37.5q44 -84 46 -197q11 -178 58 -270.5t116 -142.5q50 -38 117 -39q28 0 47 -19t19 -47q0 -27 -19 -46.5t-47 -19.5l-1 1q-222 2 -375 159q-41 -94 -84 -133q213 -48 298 -145q68 -77 68 -165
q0 -22 -12 -89.5t-115 -167.5t-267 -155q-120 -40 -261 -40z" />
    <glyph glyph-name="uni483" unicode="&#xfb59;&#xfbfd;&#x621;&#x621;&#x621;&#x621;" horiz-adv-x="1400" 
d="M1225 -1598q-69 0 -119 42.5t-60 120.5q-2 17 -2 33q0 61 33.5 124t118.5 87q33 7 62 7q62 0 114.5 -41t66.5 -122q4 -21 4 -42q0 -57 -33.5 -119t-130.5 -85q-29 -5 -54 -5zM1322 -1092q-71 0 -120 43q-58 53 -58 152q0 59 31.5 121t108.5 88q34 9 63 9q57 0 111 -40.5
t74 -122.5q7 -27 7 -54q0 -160 -174 -193q-23 -3 -43 -3zM875 -1221q-65 0 -115 41t-62 119q-3 21 -3 41q0 56 29 117.5t109 86.5q38 9 70 9q59 0 111.5 -39t67.5 -120q5 -25 5 -49q0 -53 -30.5 -114.5t-122.5 -85.5q-32 -6 -59 -6zM672 -736q-51 0 -105 5q-226 27 -350 127
q-210 167 -210 488q0 24 4.5 114t44 228t86.5 231t78 111q40 7 74 7q73 0 193 -51l4 -2q-11 -67 -33.5 -128.5t-48.5 -123.5q-38 -85 -69.5 -181.5t-38.5 -219.5v-29q0 -215 86 -321q92 -112 233 -112q120 0 231 73.5t154 208.5q11 42 11 76q0 57 -39 105.5t-125 74.5
t-169 35q-44 2 -57 13q-9 8 -9 18q0 16 22 49l12 21q134 151 165 342q13 81 13 164q0 112 -24 229q22 14 87 14q52 0 109 -12.5t83 -37.5q44 -84 46 -197q11 -178 58 -270.5t116 -142.5q50 -38 117 -39q28 0 47 -19t19 -47q0 -27 -19 -46.5t-47 -19.5l-1 1q-222 2 -375 159
q-41 -94 -84 -133q213 -48 298 -145q68 -77 68 -165q0 -22 -12 -89.5t-115 -167.5t-267 -155q-120 -40 -261 -40z" />
    <glyph glyph-name="uni484" unicode="&#xfe98;&#xfbfd;&#x621;&#x621;&#x621;&#x621;" horiz-adv-x="1397" 
d="M560 837q-49 0 -109 29q-73 41 -87 113q-4 22 -4 44q0 49 27.5 107t93.5 87q26 11 54 11q45 0 98 -28q94 -57 94 -169q0 -45 -23.5 -100.5t-89.5 -83.5q-25 -10 -54 -10zM944 890q-47 0 -98 29q-70 45 -81 119q-3 19 -3 39q0 52 28.5 110t95.5 83q23 9 49 9q49 0 106 -32
q76 -50 87 -122q2 -15 2 -30q0 -56 -34 -113.5t-102 -82.5q-24 -9 -50 -9zM672 -736q-51 0 -105 5q-226 27 -350 127q-210 167 -210 488q0 24 4.5 114t44 228t86.5 231t78 111q40 7 74 7q73 0 193 -51l4 -2q-11 -67 -33.5 -128.5t-48.5 -123.5q-38 -85 -69.5 -181.5
t-38.5 -219.5v-29q0 -215 86 -321q92 -112 233 -112q120 0 231 73.5t154 208.5q11 42 11 76q0 57 -39 105.5t-125 74.5t-169 35q-44 2 -57 13q-9 8 -9 18q0 16 22 49l12 21q134 151 165 342q13 81 13 164q0 112 -24 229q22 14 87 14q52 0 109 -12.5t83 -37.5q44 -84 46 -197
q11 -178 58 -270.5t116 -142.5q50 -38 117 -39q28 0 47 -19t19 -47q0 -27 -19 -46.5t-47 -19.5l-1 1q-222 2 -375 159q-41 -94 -84 -133q213 -48 298 -145q68 -77 68 -165q0 -22 -12 -89.5t-115 -167.5t-267 -155q-120 -40 -261 -40z" />
    <glyph glyph-name="uni485" unicode="&#xfe9c;&#xfbfd;&#x621;&#x621;&#x621;&#x621;" horiz-adv-x="1400" 
d="M574 1308q-63 0 -115 41t-66 121q-4 21 -4 42q0 57 34 119.5t130 84.5q30 5 56 5q67 0 117 -42t60 -121q2 -17 2 -33q0 -61 -33.5 -123.5t-117.5 -86.5q-34 -7 -63 -7zM484 803q-57 0 -110.5 40.5t-73.5 121.5q-6 27 -6 54q0 52 32 112t141 82q23 3 43 3q72 0 120 -43
q58 -54 58 -149q0 -62 -31.5 -124t-107.5 -88q-34 -9 -65 -9zM929 931q-59 0 -111 39t-68 119q-5 25 -5 49q0 54 30.5 115.5t122.5 85.5q31 6 58 6q65 0 115.5 -41t62.5 -120q3 -21 3 -41q0 -56 -29 -117.5t-108 -85.5q-38 -9 -71 -9zM672 -736q-51 0 -105 5
q-226 27 -350 127q-210 167 -210 488q0 24 4.5 114t44 228t86.5 231t78 111q40 7 74 7q73 0 193 -51l4 -2q-11 -67 -33.5 -128.5t-48.5 -123.5q-38 -85 -69.5 -181.5t-38.5 -219.5v-29q0 -215 86 -321q92 -112 233 -112q120 0 231 73.5t154 208.5q11 42 11 76
q0 57 -39 105.5t-125 74.5t-169 35q-44 2 -57 13q-9 8 -9 18q0 16 22 49l12 21q134 151 165 342q13 81 13 164q0 112 -24 229q22 14 87 14q52 0 109 -12.5t83 -37.5q44 -84 46 -197q11 -178 58 -270.5t116 -142.5q50 -38 117 -39q28 0 47 -19t19 -47q0 -27 -19 -46.5
t-47 -19.5l-1 1q-222 2 -375 159q-41 -94 -84 -133q213 -48 298 -145q68 -77 68 -165q0 -22 -12 -89.5t-115 -167.5t-267 -155q-120 -40 -261 -40z" />
    <glyph glyph-name="uni486" unicode="&#xfbff;&#xfbfd;&#x621;&#x621;&#x621;&#x621;" horiz-adv-x="1400" 
d="M907 -1172q-49 0 -109 29q-73 41 -87 113q-4 22 -4 44q0 49 27.5 107t93.5 87q26 11 54 11q45 0 98 -28q94 -57 94 -169q0 -45 -23.5 -100.5t-89.5 -83.5q-25 -10 -54 -10zM1291 -1119q-47 0 -98 29q-70 45 -81 119q-3 19 -3 39q0 52 28.5 110t95.5 83q23 9 49 9
q49 0 106 -32q76 -50 87 -122q2 -15 2 -30q0 -56 -34 -113.5t-102 -82.5q-24 -9 -50 -9zM672 -736q-51 0 -105 5q-226 27 -350 127q-210 167 -210 488q0 24 4.5 114t44 228t86.5 231t78 111q40 7 74 7q73 0 193 -51l4 -2q-11 -67 -33.5 -128.5t-48.5 -123.5
q-38 -85 -69.5 -181.5t-38.5 -219.5v-29q0 -215 86 -321q92 -112 233 -112q120 0 231 73.5t154 208.5q11 42 11 76q0 57 -39 105.5t-125 74.5t-169 35q-44 2 -57 13q-9 8 -9 18q0 16 22 49l12 21q134 151 165 342q13 81 13 164q0 112 -24 229q22 14 87 14q52 0 109 -12.5
t83 -37.5q44 -84 46 -197q11 -178 58 -270.5t116 -142.5q50 -38 117 -39q28 0 47 -19t19 -47q0 -27 -19 -46.5t-47 -19.5l-1 1q-222 2 -375 159q-41 -94 -84 -133q213 -48 298 -145q68 -77 68 -165q0 -22 -12 -89.5t-115 -167.5t-267 -155q-120 -40 -261 -40z" />
    <glyph glyph-name="uni487" unicode="&#xfee8;&#xfbfd;&#x621;&#x621;&#x621;&#x621;" horiz-adv-x="1400" 
d="M682 871q-108 0 -158 107q-19 42 -19 87q0 28 7 58q24 75 93 110q44 23 89 23q27 0 77.5 -14.5t89.5 -107.5q15 -39 15 -78q0 -29 -12.5 -76.5t-82.5 -84.5q-53 -24 -99 -24zM672 -736q-51 0 -105 5q-226 27 -350 127q-210 167 -210 488q0 24 4.5 114t44 228t86.5 231
t78 111q40 7 74 7q73 0 193 -51l4 -2q-11 -67 -33.5 -128.5t-48.5 -123.5q-38 -85 -69.5 -181.5t-38.5 -219.5v-29q0 -215 86 -321q92 -112 233 -112q120 0 231 73.5t154 208.5q11 42 11 76q0 57 -39 105.5t-125 74.5t-169 35q-44 2 -57 13q-9 8 -9 18q0 16 22 49l12 21
q134 151 165 342q13 81 13 164q0 112 -24 229q22 14 87 14q52 0 109 -12.5t83 -37.5q44 -84 46 -197q11 -178 58 -270.5t116 -142.5q50 -38 117 -39q28 0 47 -19t19 -47q0 -27 -19 -46.5t-47 -19.5l-1 1q-222 2 -375 159q-41 -94 -84 -133q213 -48 298 -145q68 -77 68 -165
q0 -22 -12 -89.5t-115 -167.5t-267 -155q-120 -40 -261 -40z" />
    <glyph glyph-name="uni488" unicode="&#xfe92;&#xfbfd;&#x621;&#x621;&#x621;&#x621;&#x621;" horiz-adv-x="1500" 
d="M1365 -1029q-108 0 -158 107q-19 42 -19 87q0 28 7 58q24 75 93 110q44 23 89 23q27 0 77.5 -14.5t89.5 -107.5q15 -39 15 -78q0 -29 -12.5 -76.5t-82.5 -84.5q-53 -24 -99 -24zM692 -783q-373 0 -569 298q-115 174 -115 409q0 15 3.5 150t178.5 418q46 64 114 64
q12 0 60 -7.5t139 -51.5q0 -34 -18.5 -85t-46.5 -114q-44 -96 -83 -212.5t-44 -243.5v-11q0 -111 38 -218t110.5 -179t170.5 -79h3q90 0 193.5 55t182.5 138q95 100 95 200q0 211 -400 259q-44 3 -53 20q-4 7 -4 15q0 27 43 72q96 105 166.5 232t81.5 261l1 32
q0 118 -72 229q66 35 124 35q39 0 101.5 -28.5t113.5 -123.5q47 -91 47 -190v-13q6 -162 56 -246t117 -132q50 -38 117 -39q28 0 47 -19t19 -47q0 -27 -19 -46.5t-47 -19.5h-1q-129 2 -229 54q-116 59 -186 152q-76 -106 -131 -138q65 -11 157 -50t169.5 -106t96.5 -161
q2 -17 2 -33q0 -88 -64 -180.5t-176 -169.5q-218 -150 -489 -150z" />
    <glyph glyph-name="uni489" unicode="&#xfb59;&#xfbfd;&#x621;&#x621;&#x621;&#x621;&#x621;" horiz-adv-x="1500" 
d="M1379 -1613q-69 0 -119 42.5t-60 120.5q-2 17 -2 33q0 61 33.5 124t118.5 87q33 7 62 7q62 0 114.5 -41t66.5 -122q4 -21 4 -42q0 -57 -33.5 -119t-130.5 -85q-29 -5 -54 -5zM1476 -1107q-71 0 -120 43q-58 53 -58 152q0 59 31.5 121t108.5 88q34 9 63 9q57 0 111 -40.5
t74 -122.5q7 -27 7 -54q0 -160 -174 -193q-23 -3 -43 -3zM1029 -1236q-65 0 -115 41t-62 119q-3 21 -3 41q0 56 29 117.5t109 86.5q38 9 70 9q59 0 111.5 -39t67.5 -120q5 -25 5 -49q0 -53 -30.5 -114.5t-122.5 -85.5q-32 -6 -59 -6zM692 -783q-373 0 -569 298
q-115 174 -115 409q0 15 3.5 150t178.5 418q46 64 114 64q12 0 60 -7.5t139 -51.5q0 -34 -18.5 -85t-46.5 -114q-44 -96 -83 -212.5t-44 -243.5v-11q0 -111 38 -218t110.5 -179t170.5 -79h3q90 0 193.5 55t182.5 138q95 100 95 200q0 211 -400 259q-44 3 -53 20q-4 7 -4 15
q0 27 43 72q96 105 166.5 232t81.5 261l1 32q0 118 -72 229q66 35 124 35q39 0 101.5 -28.5t113.5 -123.5q47 -91 47 -190v-13q6 -162 56 -246t117 -132q50 -38 117 -39q28 0 47 -19t19 -47q0 -27 -19 -46.5t-47 -19.5h-1q-129 2 -229 54q-116 59 -186 152
q-76 -106 -131 -138q65 -11 157 -50t169.5 -106t96.5 -161q2 -17 2 -33q0 -88 -64 -180.5t-176 -169.5q-218 -150 -489 -150z" />
    <glyph glyph-name="uni490" unicode="&#xfe98;&#xfbfd;&#x621;&#x621;&#x621;&#x621;&#x621;" horiz-adv-x="1500" 
d="M574 904q-49 0 -109 29q-73 41 -87 113q-4 22 -4 44q0 49 27.5 107t93.5 87q26 11 54 11q45 0 98 -28q94 -57 94 -169q0 -45 -23.5 -100.5t-89.5 -83.5q-25 -10 -54 -10zM958 957q-47 0 -98 29q-70 45 -81 119q-3 19 -3 39q0 52 28.5 110t95.5 83q23 9 49 9q49 0 106 -32
q76 -50 87 -122q2 -15 2 -30q0 -56 -34 -113.5t-102 -82.5q-24 -9 -50 -9zM692 -783q-373 0 -569 298q-115 174 -115 409q0 15 3.5 150t178.5 418q46 64 114 64q12 0 60 -7.5t139 -51.5q0 -34 -18.5 -85t-46.5 -114q-44 -96 -83 -212.5t-44 -243.5v-11q0 -111 38 -218
t110.5 -179t170.5 -79h3q90 0 193.5 55t182.5 138q95 100 95 200q0 211 -400 259q-44 3 -53 20q-4 7 -4 15q0 27 43 72q96 105 166.5 232t81.5 261l1 32q0 118 -72 229q66 35 124 35q39 0 101.5 -28.5t113.5 -123.5q47 -91 47 -190v-13q6 -162 56 -246t117 -132
q50 -38 117 -39q28 0 47 -19t19 -47q0 -27 -19 -46.5t-47 -19.5h-1q-129 2 -229 54q-116 59 -186 152q-76 -106 -131 -138q65 -11 157 -50t169.5 -106t96.5 -161q2 -17 2 -33q0 -88 -64 -180.5t-176 -169.5q-218 -150 -489 -150z" />
    <glyph glyph-name="uni491" unicode="&#xfe9c;&#xfbfd;&#x621;&#x621;&#x621;&#x621;&#x621;" horiz-adv-x="1500" 
d="M608 1339q-63 0 -115 41t-66 121q-4 21 -4 42q0 57 34 119.5t130 84.5q30 5 56 5q67 0 117 -42t60 -121q2 -17 2 -33q0 -61 -33.5 -123.5t-117.5 -86.5q-34 -7 -63 -7zM518 834q-57 0 -110.5 40.5t-73.5 121.5q-6 27 -6 54q0 52 32 112t141 82q23 3 43 3q72 0 120 -43
q58 -54 58 -149q0 -62 -31.5 -124t-107.5 -88q-34 -9 -65 -9zM963 962q-59 0 -111 39t-68 119q-5 25 -5 49q0 54 30.5 115.5t122.5 85.5q31 6 58 6q65 0 115.5 -41t62.5 -120q3 -21 3 -41q0 -56 -29 -117.5t-108 -85.5q-38 -9 -71 -9zM692 -783q-373 0 -569 298
q-115 174 -115 409q0 15 3.5 150t178.5 418q46 64 114 64q12 0 60 -7.5t139 -51.5q0 -34 -18.5 -85t-46.5 -114q-44 -96 -83 -212.5t-44 -243.5v-11q0 -111 38 -218t110.5 -179t170.5 -79h3q90 0 193.5 55t182.5 138q95 100 95 200q0 211 -400 259q-44 3 -53 20q-4 7 -4 15
q0 27 43 72q96 105 166.5 232t81.5 261l1 32q0 118 -72 229q66 35 124 35q39 0 101.5 -28.5t113.5 -123.5q47 -91 47 -190v-13q6 -162 56 -246t117 -132q50 -38 117 -39q28 0 47 -19t19 -47q0 -27 -19 -46.5t-47 -19.5h-1q-129 2 -229 54q-116 59 -186 152
q-76 -106 -131 -138q65 -11 157 -50t169.5 -106t96.5 -161q2 -17 2 -33q0 -88 -64 -180.5t-176 -169.5q-218 -150 -489 -150z" />
    <glyph glyph-name="uni492" unicode="&#xfbff;&#xfbfd;&#x621;&#x621;&#x621;&#x621;&#x621;" horiz-adv-x="1500" 
d="M1013 -1203q-49 0 -109 29q-73 41 -87 113q-4 22 -4 44q0 49 27.5 107t93.5 87q26 11 54 11q45 0 98 -28q94 -57 94 -169q0 -45 -23.5 -100.5t-89.5 -83.5q-25 -10 -54 -10zM1397 -1150q-47 0 -98 29q-70 45 -81 119q-3 19 -3 39q0 52 28.5 110t95.5 83q23 9 49 9
q49 0 106 -32q76 -50 87 -122q2 -15 2 -30q0 -56 -34 -113.5t-102 -82.5q-24 -9 -50 -9zM692 -783q-373 0 -569 298q-115 174 -115 409q0 15 3.5 150t178.5 418q46 64 114 64q12 0 60 -7.5t139 -51.5q0 -34 -18.5 -85t-46.5 -114q-44 -96 -83 -212.5t-44 -243.5v-11
q0 -111 38 -218t110.5 -179t170.5 -79h3q90 0 193.5 55t182.5 138q95 100 95 200q0 211 -400 259q-44 3 -53 20q-4 7 -4 15q0 27 43 72q96 105 166.5 232t81.5 261l1 32q0 118 -72 229q66 35 124 35q39 0 101.5 -28.5t113.5 -123.5q47 -91 47 -190v-13q6 -162 56 -246
t117 -132q50 -38 117 -39q28 0 47 -19t19 -47q0 -27 -19 -46.5t-47 -19.5h-1q-129 2 -229 54q-116 59 -186 152q-76 -106 -131 -138q65 -11 157 -50t169.5 -106t96.5 -161q2 -17 2 -33q0 -88 -64 -180.5t-176 -169.5q-218 -150 -489 -150z" />
    <glyph glyph-name="uni493" unicode="&#xfee8;&#xfbfd;&#x621;&#x621;&#x621;&#x621;&#x621;" horiz-adv-x="1526" 
d="M608 794q-108 0 -158 107q-19 42 -19 87q0 28 7 58q24 75 93 110q44 23 89 23q27 0 77.5 -14.5t89.5 -107.5q15 -39 15 -78q0 -29 -12.5 -76.5t-82.5 -84.5q-53 -24 -99 -24zM692 -783q-373 0 -569 298q-115 174 -115 409q0 15 3.5 150t178.5 418q46 64 114 64
q12 0 60 -7.5t139 -51.5q0 -34 -18.5 -85t-46.5 -114q-44 -96 -83 -212.5t-44 -243.5v-11q0 -111 38 -218t110.5 -179t170.5 -79h3q90 0 193.5 55t182.5 138q95 100 95 200q0 211 -400 259q-44 3 -53 20q-4 7 -4 15q0 27 43 72q96 105 166.5 232t81.5 261l1 32
q0 118 -72 229q66 35 124 35q39 0 101.5 -28.5t113.5 -123.5q47 -91 47 -190v-13q6 -162 56 -246t117 -132q50 -38 117 -39q28 0 47 -19t19 -47q0 -27 -19 -46.5t-47 -19.5h-1q-129 2 -229 54q-116 59 -186 152q-76 -106 -131 -138q65 -11 157 -50t169.5 -106t96.5 -161
q2 -17 2 -33q0 -88 -64 -180.5t-176 -169.5q-218 -150 -489 -150z" />
    <glyph glyph-name="uni494" unicode="&#xfe92;&#xfbfd;&#x621;&#x621;&#x621;&#x621;&#x621;&#x621;" horiz-adv-x="2200" 
d="M1961 -843q-108 0 -158 107q-19 42 -19 87q0 28 7 58q24 75 93 110q44 23 89 23q27 0 77.5 -14.5t89.5 -107.5q15 -39 15 -78q0 -29 -12.5 -76.5t-82.5 -84.5q-53 -24 -99 -24zM993 -619h-29q-215 0 -457 76q-182 63 -348 230q-102 110 -134 245q-19 79 -19 159
q0 59 16.5 159.5t80.5 229.5q89 185 246 306.5t365 121.5q33 0 90 -16q50 -15 66 -36q-178 -97 -323.5 -252.5t-205.5 -348.5q-25 -81 -25 -165q0 -116 47 -236q131 -307 535 -353q57 -5 110 -5q174 0 318 54q66 25 132 65t108.5 97t42.5 131v7q-7 65 -72 105t-144 59
q-75 17 -121 17l-49 -1q-57 0 -101 -4q-99 2 -137 33q-24 19 -24 39q0 11 16.5 32.5t100.5 24.5q200 26 339.5 124t185.5 253q17 56 17 117q0 107 -52 231q46 16 88 16q31 0 79.5 -15.5t106.5 -75.5q103 -106 103 -244v-17q6 -158 56 -242t117 -132q50 -38 117 -39
q28 0 47 -19t19 -47q0 -27 -19 -46.5t-47 -19.5h-1q-125 0 -229 54q-101 51 -174 136q-30 35 -51 64q-55 -39 -121 -73l-46 -26q-19 -11 -19 -30q0 -14 32 -20l10 -3q180 -51 269 -177q32 -55 32 -111q0 -24 -13.5 -76.5t-61.5 -108.5q-90 -101 -242 -155q-259 -92 -627 -92
z" />
    <glyph glyph-name="uni495" unicode="&#xfb59;&#xfbfd;&#x621;&#x621;&#x621;&#x621;&#x621;&#x621;" horiz-adv-x="2200" 
d="M1855 -1478q-69 0 -119 42.5t-60 120.5q-2 17 -2 33q0 61 33.5 124t118.5 87q33 7 62 7q62 0 114.5 -41t66.5 -122q4 -21 4 -42q0 -57 -33.5 -119t-130.5 -85q-29 -5 -54 -5zM1952 -972q-71 0 -120 43q-58 53 -58 152q0 59 31.5 121t108.5 88q34 9 63 9q57 0 111 -40.5
t74 -122.5q7 -27 7 -54q0 -160 -174 -193q-23 -3 -43 -3zM1505 -1101q-65 0 -115 41t-62 119q-3 21 -3 41q0 56 29 117.5t109 86.5q38 9 70 9q59 0 111.5 -39t67.5 -120q5 -25 5 -49q0 -53 -30.5 -114.5t-122.5 -85.5q-32 -6 -59 -6zM993 -619h-29q-215 0 -457 76
q-182 63 -348 230q-102 110 -134 245q-19 79 -19 159q0 59 16.5 159.5t80.5 229.5q89 185 246 306.5t365 121.5q33 0 90 -16q50 -15 66 -36q-178 -97 -323.5 -252.5t-205.5 -348.5q-25 -81 -25 -165q0 -116 47 -236q131 -307 535 -353q57 -5 110 -5q174 0 318 54
q66 25 132 65t108.5 97t42.5 131v7q-7 65 -72 105t-144 59q-75 17 -121 17l-49 -1q-57 0 -101 -4q-99 2 -137 33q-24 19 -24 39q0 11 16.5 32.5t100.5 24.5q200 26 339.5 124t185.5 253q17 56 17 117q0 107 -52 231q46 16 88 16q31 0 79.5 -15.5t106.5 -75.5
q103 -106 103 -244v-17q6 -158 56 -242t117 -132q50 -38 117 -39q28 0 47 -19t19 -47q0 -27 -19 -46.5t-47 -19.5h-1q-125 0 -229 54q-101 51 -174 136q-30 35 -51 64q-55 -39 -121 -73l-46 -26q-19 -11 -19 -30q0 -14 32 -20l10 -3q180 -51 269 -177q32 -55 32 -111
q0 -24 -13.5 -76.5t-61.5 -108.5q-90 -101 -242 -155q-259 -92 -627 -92z" />
    <glyph glyph-name="uni496" unicode="&#xfe98;&#xfbfd;&#x621;&#x621;&#x621;&#x621;&#x621;&#x621;" horiz-adv-x="2200" 
d="M1286 418q-50 0 -108 27t-87 93q-11 26 -11 54q0 46 28 99q58 94 169 94q45 0 100.5 -23.5t83.5 -89.5q11 -25 11 -55q0 -48 -29 -108q-41 -73 -113 -87q-22 -4 -44 -4zM1233 819q-53 0 -111 29t-84 96q-9 23 -9 48q0 48 33 107q49 76 121 86q16 2 31 2q56 0 113 -33.5
t82 -101.5q9 -25 9 -51q0 -47 -29 -98q-55 -84 -156 -84zM993 -619h-29q-215 0 -457 76q-182 63 -348 230q-102 110 -134 245q-19 79 -19 159q0 59 16.5 159.5t80.5 229.5q89 185 246 306.5t365 121.5q33 0 90 -16q50 -15 66 -36q-178 -97 -323.5 -252.5t-205.5 -348.5
q-25 -81 -25 -165q0 -116 47 -236q131 -307 535 -353q57 -5 110 -5q174 0 318 54q66 25 132 65t108.5 97t42.5 131v7q-7 65 -72 105t-144 59q-75 17 -121 17l-49 -1q-57 0 -101 -4q-99 2 -137 33q-24 19 -24 39q0 11 16.5 32.5t100.5 24.5q200 26 339.5 124t185.5 253
q17 56 17 117q0 107 -52 231q46 16 88 16q31 0 79.5 -15.5t106.5 -75.5q103 -106 103 -244v-17q6 -158 56 -242t117 -132q50 -38 117 -39q28 0 47 -19t19 -47q0 -27 -19 -46.5t-47 -19.5h-1q-125 0 -229 54q-101 51 -174 136q-30 35 -51 64q-55 -39 -121 -73l-46 -26
q-19 -11 -19 -30q0 -14 32 -20l10 -3q180 -51 269 -177q32 -55 32 -111q0 -24 -13.5 -76.5t-61.5 -108.5q-90 -101 -242 -155q-259 -92 -627 -92z" />
    <glyph glyph-name="uni497" unicode="&#xfe9c;&#xfbfd;&#x621;&#x621;&#x621;&#x621;&#x621;&#x621;" horiz-adv-x="2200" 
d="M1253 1328q-63 0 -115 41t-66 121q-4 21 -4 42q0 57 34 119.5t130 84.5q30 5 56 5q67 0 117 -42t60 -121q2 -17 2 -33q0 -61 -33.5 -123.5t-117.5 -86.5q-34 -7 -63 -7zM1163 823q-57 0 -110.5 40.5t-73.5 121.5q-6 27 -6 54q0 52 32 112t141 82q23 3 43 3q72 0 120 -43
q58 -54 58 -149q0 -62 -31.5 -124t-107.5 -88q-34 -9 -65 -9zM1608 951q-59 0 -111 39t-68 119q-5 25 -5 49q0 54 30.5 115.5t122.5 85.5q31 6 58 6q65 0 115.5 -41t62.5 -120q3 -21 3 -41q0 -56 -29 -117.5t-108 -85.5q-38 -9 -71 -9zM993 -619h-29q-215 0 -457 76
q-182 63 -348 230q-102 110 -134 245q-19 79 -19 159q0 59 16.5 159.5t80.5 229.5q89 185 246 306.5t365 121.5q33 0 90 -16q50 -15 66 -36q-178 -97 -323.5 -252.5t-205.5 -348.5q-25 -81 -25 -165q0 -116 47 -236q131 -307 535 -353q57 -5 110 -5q174 0 318 54
q66 25 132 65t108.5 97t42.5 131v7q-7 65 -72 105t-144 59q-75 17 -121 17l-49 -1q-57 0 -101 -4q-99 2 -137 33q-24 19 -24 39q0 11 16.5 32.5t100.5 24.5q200 26 339.5 124t185.5 253q17 56 17 117q0 107 -52 231q46 16 88 16q31 0 79.5 -15.5t106.5 -75.5
q103 -106 103 -244v-17q6 -158 56 -242t117 -132q50 -38 117 -39q28 0 47 -19t19 -47q0 -27 -19 -46.5t-47 -19.5h-1q-125 0 -229 54q-101 51 -174 136q-30 35 -51 64q-55 -39 -121 -73l-46 -26q-19 -11 -19 -30q0 -14 32 -20l10 -3q180 -51 269 -177q32 -55 32 -111
q0 -24 -13.5 -76.5t-61.5 -108.5q-90 -101 -242 -155q-259 -92 -627 -92z" />
    <glyph glyph-name="uni498" unicode="&#xfbff;&#xfbfd;&#x621;&#x621;&#x621;&#x621;&#x621;&#x621;" horiz-adv-x="2200" 
d="M1643 -971q-49 0 -109 29q-73 41 -87 113q-4 22 -4 44q0 49 27.5 107t93.5 87q26 11 54 11q45 0 98 -28q94 -57 94 -169q0 -45 -23.5 -100.5t-89.5 -83.5q-25 -10 -54 -10zM2027 -918q-47 0 -98 29q-70 45 -81 119q-3 19 -3 39q0 52 28.5 110t95.5 83q23 9 49 9
q49 0 106 -32q76 -50 87 -122q2 -15 2 -30q0 -56 -34 -113.5t-102 -82.5q-24 -9 -50 -9zM993 -619h-29q-215 0 -457 76q-182 63 -348 230q-102 110 -134 245q-19 79 -19 159q0 59 16.5 159.5t80.5 229.5q89 185 246 306.5t365 121.5q33 0 90 -16q50 -15 66 -36
q-178 -97 -323.5 -252.5t-205.5 -348.5q-25 -81 -25 -165q0 -116 47 -236q131 -307 535 -353q57 -5 110 -5q174 0 318 54q66 25 132 65t108.5 97t42.5 131v7q-7 65 -72 105t-144 59q-75 17 -121 17l-49 -1q-57 0 -101 -4q-99 2 -137 33q-24 19 -24 39q0 11 16.5 32.5
t100.5 24.5q200 26 339.5 124t185.5 253q17 56 17 117q0 107 -52 231q46 16 88 16q31 0 79.5 -15.5t106.5 -75.5q103 -106 103 -244v-17q6 -158 56 -242t117 -132q50 -38 117 -39q28 0 47 -19t19 -47q0 -27 -19 -46.5t-47 -19.5h-1q-125 0 -229 54q-101 51 -174 136
q-30 35 -51 64q-55 -39 -121 -73l-46 -26q-19 -11 -19 -30q0 -14 32 -20l10 -3q180 -51 269 -177q32 -55 32 -111q0 -24 -13.5 -76.5t-61.5 -108.5q-90 -101 -242 -155q-259 -92 -627 -92z" />
    <glyph glyph-name="uni499" unicode="&#xfee8;&#xfbfd;&#x621;&#x621;&#x621;&#x621;&#x621;&#x621;" horiz-adv-x="2200" 
d="M1250 427q-108 0 -158 107q-19 42 -19 87q0 28 7 58q24 75 93 110q44 23 89 23q27 0 77.5 -14.5t89.5 -107.5q15 -39 15 -78q0 -29 -12.5 -76.5t-82.5 -84.5q-53 -24 -99 -24zM993 -619h-29q-215 0 -457 76q-182 63 -348 230q-102 110 -134 245q-19 79 -19 159
q0 59 16.5 159.5t80.5 229.5q89 185 246 306.5t365 121.5q33 0 90 -16q50 -15 66 -36q-178 -97 -323.5 -252.5t-205.5 -348.5q-25 -81 -25 -165q0 -116 47 -236q131 -307 535 -353q57 -5 110 -5q174 0 318 54q66 25 132 65t108.5 97t42.5 131v7q-7 65 -72 105t-144 59
q-75 17 -121 17l-49 -1q-57 0 -101 -4q-99 2 -137 33q-24 19 -24 39q0 11 16.5 32.5t100.5 24.5q200 26 339.5 124t185.5 253q17 56 17 117q0 107 -52 231q46 16 88 16q31 0 79.5 -15.5t106.5 -75.5q103 -106 103 -244v-17q6 -158 56 -242t117 -132q50 -38 117 -39
q28 0 47 -19t19 -47q0 -27 -19 -46.5t-47 -19.5h-1q-125 0 -229 54q-101 51 -174 136q-30 35 -51 64q-55 -39 -121 -73l-46 -26q-19 -11 -19 -30q0 -14 32 -20l10 -3q180 -51 269 -177q32 -55 32 -111q0 -24 -13.5 -76.5t-61.5 -108.5q-90 -101 -242 -155q-259 -92 -627 -92
z" />
    <glyph glyph-name="uni500" unicode="&#xfe92;&#xfbfd;&#x621;&#x621;&#x621;&#x621;&#x621;&#x621;&#x621;" horiz-adv-x="1400" 
d="M605 -422q-108 0 -158 107q-19 42 -19 87q0 28 7 58q24 75 93 110q44 23 89 23q27 0 77.5 -14.5t89.5 -107.5q15 -39 15 -78q0 -29 -12.5 -76.5t-82.5 -84.5q-53 -24 -99 -24zM723 -738q-100 0 -245 19t-282 115q-81 58 -138 162q-51 92 -51 205l1 28q16 164 119 290
q120 150 318 194q54 8 101 8q36 0 69 -4.5t63 -4.5h27q20 0 54 13q51 19 85 74.5t34 158.5v18q-10 91 -24 166q-5 29 -8 52l277 23q24 -88 38 -196q1 -14 3 -27v-4q20 -166 65.5 -250t111.5 -132q50 -38 117 -39q27 0 46.5 -19t19.5 -47q0 -27 -19.5 -46.5t-46.5 -19.5l-2 1
q-227 2 -382 168q-117 -152 -276 -162q-39 -3 -79 -3q-39 0 -78.5 3t-76.5 3q-49 0 -96 -5q-127 -19 -175 -94q-31 -49 -31 -104q0 -29 17.5 -89.5t113.5 -124.5q90 -54 239 -61q33 -2 68 -2q118 0 266 22t295 62t235 79q173 78 367 193q16 -85 16 -143q0 -26 -6.5 -70
t-54.5 -88t-138 -94q-139 -71 -335 -130t-409 -85q-109 -13 -213 -13z" />
    <glyph glyph-name="uni501" unicode="&#xfb59;&#xfbfd;&#x621;&#x621;&#x621;&#x621;&#x621;&#x621;&#x621;" horiz-adv-x="1400" 
d="M1225 -1598q-69 0 -119 42.5t-60 120.5q-2 17 -2 33q0 61 33.5 124t118.5 87q33 7 62 7q62 0 114.5 -41t66.5 -122q4 -21 4 -42q0 -57 -33.5 -119t-130.5 -85q-29 -5 -54 -5zM1322 -1092q-71 0 -120 43q-58 53 -58 152q0 59 31.5 121t108.5 88q34 9 63 9q57 0 111 -40.5
t74 -122.5q7 -27 7 -54q0 -160 -174 -193q-23 -3 -43 -3zM875 -1221q-65 0 -115 41t-62 119q-3 21 -3 41q0 56 29 117.5t109 86.5q38 9 70 9q59 0 111.5 -39t67.5 -120q5 -25 5 -49q0 -53 -30.5 -114.5t-122.5 -85.5q-32 -6 -59 -6zM723 -738q-100 0 -245 19t-282 115
q-81 58 -138 162q-51 92 -51 205l1 28q16 164 119 290q120 150 318 194q54 8 101 8q36 0 69 -4.5t63 -4.5h27q20 0 54 13q51 19 85 74.5t34 158.5v18q-10 91 -24 166q-5 29 -8 52l277 23q24 -88 38 -196q1 -14 3 -27v-4q20 -166 65.5 -250t111.5 -132q50 -38 117 -39
q27 0 46.5 -19t19.5 -47q0 -27 -19.5 -46.5t-46.5 -19.5l-2 1q-227 2 -382 168q-117 -152 -276 -162q-39 -3 -79 -3q-39 0 -78.5 3t-76.5 3q-49 0 -96 -5q-127 -19 -175 -94q-31 -49 -31 -104q0 -29 17.5 -89.5t113.5 -124.5q90 -54 239 -61q33 -2 68 -2q118 0 266 22
t295 62t235 79q173 78 367 193q16 -85 16 -143q0 -26 -6.5 -70t-54.5 -88t-138 -94q-139 -71 -335 -130t-409 -85q-109 -13 -213 -13z" />
    <glyph glyph-name="uni502" unicode="&#xfe98;&#xfbfd;&#x621;&#x621;&#x621;&#x621;&#x621;&#x621;&#x621;" horiz-adv-x="1400" 
d="M560 837q-49 0 -109 29q-73 41 -87 113q-4 22 -4 44q0 49 27.5 107t93.5 87q26 11 54 11q45 0 98 -28q94 -57 94 -169q0 -45 -23.5 -100.5t-89.5 -83.5q-25 -10 -54 -10zM944 890q-47 0 -98 29q-70 45 -81 119q-3 19 -3 39q0 52 28.5 110t95.5 83q23 9 49 9q49 0 106 -32
q76 -50 87 -122q2 -15 2 -30q0 -56 -34 -113.5t-102 -82.5q-24 -9 -50 -9zM723 -738q-100 0 -245 19t-282 115q-81 58 -138 162q-51 92 -51 205l1 28q16 164 119 290q120 150 318 194q54 8 101 8q36 0 69 -4.5t63 -4.5h27q20 0 54 13q51 19 85 74.5t34 158.5v18
q-10 91 -24 166q-5 29 -8 52l277 23q24 -88 38 -196q1 -14 3 -27v-4q20 -166 65.5 -250t111.5 -132q50 -38 117 -39q27 0 46.5 -19t19.5 -47q0 -27 -19.5 -46.5t-46.5 -19.5l-2 1q-227 2 -382 168q-117 -152 -276 -162q-39 -3 -79 -3q-39 0 -78.5 3t-76.5 3q-49 0 -96 -5
q-127 -19 -175 -94q-31 -49 -31 -104q0 -29 17.5 -89.5t113.5 -124.5q90 -54 239 -61q33 -2 68 -2q118 0 266 22t295 62t235 79q173 78 367 193q16 -85 16 -143q0 -26 -6.5 -70t-54.5 -88t-138 -94q-139 -71 -335 -130t-409 -85q-109 -13 -213 -13z" />
    <glyph glyph-name="uni503" unicode="&#xfe9c;&#xfbfd;&#x621;&#x621;&#x621;&#x621;&#x621;&#x621;&#x621;" horiz-adv-x="1400" 
d="M574 1308q-63 0 -115 41t-66 121q-4 21 -4 42q0 57 34 119.5t130 84.5q30 5 56 5q67 0 117 -42t60 -121q2 -17 2 -33q0 -61 -33.5 -123.5t-117.5 -86.5q-34 -7 -63 -7zM484 803q-57 0 -110.5 40.5t-73.5 121.5q-6 27 -6 54q0 52 32 112t141 82q23 3 43 3q72 0 120 -43
q58 -54 58 -149q0 -62 -31.5 -124t-107.5 -88q-34 -9 -65 -9zM929 931q-59 0 -111 39t-68 119q-5 25 -5 49q0 54 30.5 115.5t122.5 85.5q31 6 58 6q65 0 115.5 -41t62.5 -120q3 -21 3 -41q0 -56 -29 -117.5t-108 -85.5q-38 -9 -71 -9zM723 -738q-100 0 -245 19t-282 115
q-81 58 -138 162q-51 92 -51 205l1 28q16 164 119 290q120 150 318 194q54 8 101 8q36 0 69 -4.5t63 -4.5h27q20 0 54 13q51 19 85 74.5t34 158.5v18q-10 91 -24 166q-5 29 -8 52l277 23q24 -88 38 -196q1 -14 3 -27v-4q20 -166 65.5 -250t111.5 -132q50 -38 117 -39
q27 0 46.5 -19t19.5 -47q0 -27 -19.5 -46.5t-46.5 -19.5l-2 1q-227 2 -382 168q-117 -152 -276 -162q-39 -3 -79 -3q-39 0 -78.5 3t-76.5 3q-49 0 -96 -5q-127 -19 -175 -94q-31 -49 -31 -104q0 -29 17.5 -89.5t113.5 -124.5q90 -54 239 -61q33 -2 68 -2q118 0 266 22
t295 62t235 79q173 78 367 193q16 -85 16 -143q0 -26 -6.5 -70t-54.5 -88t-138 -94q-139 -71 -335 -130t-409 -85q-109 -13 -213 -13z" />
    <glyph glyph-name="uni504" unicode="&#xfbff;&#xfbfd;&#x621;&#x621;&#x621;&#x621;&#x621;&#x621;&#x621;" horiz-adv-x="1400" 
d="M669 -435q-49 0 -109 29q-73 41 -87 113q-4 22 -4 44q0 49 27.5 107t93.5 87q26 11 54 11q45 0 98 -28q94 -57 94 -169q0 -45 -23.5 -100.5t-89.5 -83.5q-25 -10 -54 -10zM1053 -382q-47 0 -98 29q-70 45 -81 119q-3 19 -3 39q0 52 28.5 110t95.5 83q23 9 49 9
q49 0 106 -32q76 -50 87 -122q2 -15 2 -30q0 -56 -34 -113.5t-102 -82.5q-24 -9 -50 -9zM723 -738q-100 0 -245 19t-282 115q-81 58 -138 162q-51 92 -51 205l1 28q16 164 119 290q120 150 318 194q54 8 101 8q36 0 69 -4.5t63 -4.5h27q20 0 54 13q51 19 85 74.5t34 158.5
v18q-10 91 -24 166q-5 29 -8 52l277 23q24 -88 38 -196q1 -14 3 -27v-4q20 -166 65.5 -250t111.5 -132q50 -38 117 -39q27 0 46.5 -19t19.5 -47q0 -27 -19.5 -46.5t-46.5 -19.5l-2 1q-227 2 -382 168q-117 -152 -276 -162q-39 -3 -79 -3q-39 0 -78.5 3t-76.5 3q-49 0 -96 -5
q-127 -19 -175 -94q-31 -49 -31 -104q0 -29 17.5 -89.5t113.5 -124.5q90 -54 239 -61q33 -2 68 -2q118 0 266 22t295 62t235 79q173 78 367 193q16 -85 16 -143q0 -26 -6.5 -70t-54.5 -88t-138 -94q-139 -71 -335 -130t-409 -85q-109 -13 -213 -13z" />
    <glyph glyph-name="uni505" unicode="&#xfee8;&#xfbfd;&#x621;&#x621;&#x621;&#x621;&#x621;&#x621;&#x621;" horiz-adv-x="1400" 
d="M682 871q-108 0 -158 107q-19 42 -19 87q0 28 7 58q24 75 93 110q44 23 89 23q27 0 77.5 -14.5t89.5 -107.5q15 -39 15 -78q0 -29 -12.5 -76.5t-82.5 -84.5q-53 -24 -99 -24zM723 -738q-100 0 -245 19t-282 115q-81 58 -138 162q-51 92 -51 205l1 28q16 164 119 290
q120 150 318 194q54 8 101 8q36 0 69 -4.5t63 -4.5h27q20 0 54 13q51 19 85 74.5t34 158.5v18q-10 91 -24 166q-5 29 -8 52l277 23q24 -88 38 -196q1 -14 3 -27v-4q20 -166 65.5 -250t111.5 -132q50 -38 117 -39q27 0 46.5 -19t19.5 -47q0 -27 -19.5 -46.5t-46.5 -19.5l-2 1
q-227 2 -382 168q-117 -152 -276 -162q-39 -3 -79 -3q-39 0 -78.5 3t-76.5 3q-49 0 -96 -5q-127 -19 -175 -94q-31 -49 -31 -104q0 -29 17.5 -89.5t113.5 -124.5q90 -54 239 -61q33 -2 68 -2q118 0 266 22t295 62t235 79q173 78 367 193q16 -85 16 -143q0 -26 -6.5 -70
t-54.5 -88t-138 -94q-139 -71 -335 -130t-409 -85q-109 -13 -213 -13z" />
    <glyph glyph-name="uni506" unicode="&#xfe91;&#xfbfd;&#x621;&#x621;" horiz-adv-x="1601" 
d="M1342 -1164q-108 0 -158 107q-19 42 -19 87q0 28 7 58q24 75 93 110q44 23 89 23q27 0 77.5 -14.5t89.5 -107.5q15 -39 15 -78q0 -29 -12.5 -76.5t-82.5 -84.5q-53 -24 -99 -24zM684 -860q-133 0 -279 40t-260 166t-136 344q-1 21 -1 43q0 132 55.5 291t149.5 301.5
t188 206.5q72 -5 113.5 -20.5t91.5 -45.5l18 -10q-11 -51 -44.5 -103t-78.5 -110q-75 -92 -142 -212.5t-82 -288.5q-2 -35 -2 -67q0 -205 85 -308.5t239 -103.5q143 0 296.5 69.5t269.5 173t144 201.5q10 42 10 74q0 62 -35 89q-45 35 -113 35q-13 0 -63.5 -4t-125.5 -31.5
t-92 -44.5q-99 8 -213 76q26 16 89.5 74.5t133 163t112.5 257.5q33 115 33 260q0 46 -3 95v16q0 63 30 79q18 9 40 9q23 0 63.5 -14t94.5 -47q53 -79 53 -189q0 -24 -8 -108t-62 -225.5t-111 -234.5q140 -6 245.5 -64t156.5 -151q36 -64 36 -137q0 -31 -15 -102t-131 -179
q-117 -104 -288 -172.5t-359 -86.5q-52 -5 -103 -5z" />
    <glyph glyph-name="uni507" unicode="&#xfb58;&#xfbfd;&#x621;&#x621;" horiz-adv-x="1601" 
d="M1531 -1593q-69 0 -119 42.5t-60 120.5q-2 17 -2 33q0 61 33.5 124t118.5 87q33 7 62 7q62 0 114.5 -41t66.5 -122q4 -21 4 -42q0 -57 -33.5 -119t-130.5 -85q-29 -5 -54 -5zM1628 -1087q-71 0 -120 43q-58 53 -58 152q0 59 31.5 121t108.5 88q34 9 63 9q57 0 111 -40.5
t74 -122.5q7 -27 7 -54q0 -160 -174 -193q-23 -3 -43 -3zM1181 -1216q-65 0 -115 41t-62 119q-3 21 -3 41q0 56 29 117.5t109 86.5q38 9 70 9q59 0 111.5 -39t67.5 -120q5 -25 5 -49q0 -53 -30.5 -114.5t-122.5 -85.5q-32 -6 -59 -6zM684 -860q-133 0 -279 40t-260 166
t-136 344q-1 21 -1 43q0 132 55.5 291t149.5 301.5t188 206.5q72 -5 113.5 -20.5t91.5 -45.5l18 -10q-11 -51 -44.5 -103t-78.5 -110q-75 -92 -142 -212.5t-82 -288.5q-2 -35 -2 -67q0 -205 85 -308.5t239 -103.5q143 0 296.5 69.5t269.5 173t144 201.5q10 42 10 74
q0 62 -35 89q-45 35 -113 35q-13 0 -63.5 -4t-125.5 -31.5t-92 -44.5q-99 8 -213 76q26 16 89.5 74.5t133 163t112.5 257.5q33 115 33 260q0 46 -3 95v16q0 63 30 79q18 9 40 9q23 0 63.5 -14t94.5 -47q53 -79 53 -189q0 -24 -8 -108t-62 -225.5t-111 -234.5
q140 -6 245.5 -64t156.5 -151q36 -64 36 -137q0 -31 -15 -102t-131 -179q-117 -104 -288 -172.5t-359 -86.5q-52 -5 -103 -5z" />
    <glyph glyph-name="uni508" unicode="&#xfe97;&#xfbfd;&#x621;&#x621;" horiz-adv-x="1601" 
d="M749 872q-49 0 -109 29q-73 41 -87 113q-4 22 -4 44q0 49 27.5 107t93.5 87q26 11 54 11q45 0 98 -28q94 -57 94 -169q0 -45 -23.5 -100.5t-89.5 -83.5q-25 -10 -54 -10zM1133 925q-47 0 -98 29q-70 45 -81 119q-3 19 -3 39q0 52 28.5 110t95.5 83q23 9 49 9
q49 0 106 -32q76 -50 87 -122q2 -15 2 -30q0 -56 -34 -113.5t-102 -82.5q-24 -9 -50 -9zM684 -860q-133 0 -279 40t-260 166t-136 344q-1 21 -1 43q0 132 55.5 291t149.5 301.5t188 206.5q72 -5 113.5 -20.5t91.5 -45.5l18 -10q-11 -51 -44.5 -103t-78.5 -110
q-75 -92 -142 -212.5t-82 -288.5q-2 -35 -2 -67q0 -205 85 -308.5t239 -103.5q143 0 296.5 69.5t269.5 173t144 201.5q10 42 10 74q0 62 -35 89q-45 35 -113 35q-13 0 -63.5 -4t-125.5 -31.5t-92 -44.5q-99 8 -213 76q26 16 89.5 74.5t133 163t112.5 257.5q33 115 33 260
q0 46 -3 95v16q0 63 30 79q18 9 40 9q23 0 63.5 -14t94.5 -47q53 -79 53 -189q0 -24 -8 -108t-62 -225.5t-111 -234.5q140 -6 245.5 -64t156.5 -151q36 -64 36 -137q0 -31 -15 -102t-131 -179q-117 -104 -288 -172.5t-359 -86.5q-52 -5 -103 -5z" />
    <glyph glyph-name="uni509" unicode="&#xfe9b;&#xfbfd;&#x621;&#x621;" horiz-adv-x="1601" 
d="M872 1325q-63 0 -115 41t-66 121q-4 21 -4 42q0 57 34 119.5t130 84.5q30 5 56 5q67 0 117 -42t60 -121q2 -17 2 -33q0 -61 -33.5 -123.5t-117.5 -86.5q-34 -7 -63 -7zM782 820q-57 0 -110.5 40.5t-73.5 121.5q-6 27 -6 54q0 52 32 112t141 82q23 3 43 3q72 0 120 -43
q58 -54 58 -149q0 -62 -31.5 -124t-107.5 -88q-34 -9 -65 -9zM1227 948q-59 0 -111 39t-68 119q-5 25 -5 49q0 54 30.5 115.5t122.5 85.5q31 6 58 6q65 0 115.5 -41t62.5 -120q3 -21 3 -41q0 -56 -29 -117.5t-108 -85.5q-38 -9 -71 -9zM684 -860q-133 0 -279 40t-260 166
t-136 344q-1 21 -1 43q0 132 55.5 291t149.5 301.5t188 206.5q72 -5 113.5 -20.5t91.5 -45.5l18 -10q-11 -51 -44.5 -103t-78.5 -110q-75 -92 -142 -212.5t-82 -288.5q-2 -35 -2 -67q0 -205 85 -308.5t239 -103.5q143 0 296.5 69.5t269.5 173t144 201.5q10 42 10 74
q0 62 -35 89q-45 35 -113 35q-13 0 -63.5 -4t-125.5 -31.5t-92 -44.5q-99 8 -213 76q26 16 89.5 74.5t133 163t112.5 257.5q33 115 33 260q0 46 -3 95v16q0 63 30 79q18 9 40 9q23 0 63.5 -14t94.5 -47q53 -79 53 -189q0 -24 -8 -108t-62 -225.5t-111 -234.5
q140 -6 245.5 -64t156.5 -151q36 -64 36 -137q0 -31 -15 -102t-131 -179q-117 -104 -288 -172.5t-359 -86.5q-52 -5 -103 -5z" />
    <glyph glyph-name="uni510" unicode="&#xfbfe;&#xfbfd;&#x621;&#x621;" horiz-adv-x="1601" 
d="M1030 -1266q-49 0 -109 29q-73 41 -87 113q-4 22 -4 44q0 49 27.5 107t93.5 87q26 11 54 11q45 0 98 -28q94 -57 94 -169q0 -45 -23.5 -100.5t-89.5 -83.5q-25 -10 -54 -10zM1414 -1213q-47 0 -98 29q-70 45 -81 119q-3 19 -3 39q0 52 28.5 110t95.5 83q23 9 49 9
q49 0 106 -32q76 -50 87 -122q2 -15 2 -30q0 -56 -34 -113.5t-102 -82.5q-24 -9 -50 -9zM684 -860q-133 0 -279 40t-260 166t-136 344q-1 21 -1 43q0 132 55.5 291t149.5 301.5t188 206.5q72 -5 113.5 -20.5t91.5 -45.5l18 -10q-11 -51 -44.5 -103t-78.5 -110
q-75 -92 -142 -212.5t-82 -288.5q-2 -35 -2 -67q0 -205 85 -308.5t239 -103.5q143 0 296.5 69.5t269.5 173t144 201.5q10 42 10 74q0 62 -35 89q-45 35 -113 35q-13 0 -63.5 -4t-125.5 -31.5t-92 -44.5q-99 8 -213 76q26 16 89.5 74.5t133 163t112.5 257.5q33 115 33 260
q0 46 -3 95v16q0 63 30 79q18 9 40 9q23 0 63.5 -14t94.5 -47q53 -79 53 -189q0 -24 -8 -108t-62 -225.5t-111 -234.5q140 -6 245.5 -64t156.5 -151q36 -64 36 -137q0 -31 -15 -102t-131 -179q-117 -104 -288 -172.5t-359 -86.5q-52 -5 -103 -5z" />
    <glyph glyph-name="uni511" unicode="&#xfee7;&#xfbfd;&#x621;&#x621;" horiz-adv-x="1601" 
d="M760 613q-108 0 -158 107q-19 42 -19 87q0 28 7 58q24 75 93 110q44 23 89 23q27 0 77.5 -14.5t89.5 -107.5q15 -39 15 -78q0 -29 -12.5 -76.5t-82.5 -84.5q-53 -24 -99 -24zM684 -860q-133 0 -279 40t-260 166t-136 344q-1 21 -1 43q0 132 55.5 291t149.5 301.5
t188 206.5q72 -5 113.5 -20.5t91.5 -45.5l18 -10q-11 -51 -44.5 -103t-78.5 -110q-75 -92 -142 -212.5t-82 -288.5q-2 -35 -2 -67q0 -205 85 -308.5t239 -103.5q143 0 296.5 69.5t269.5 173t144 201.5q10 42 10 74q0 62 -35 89q-45 35 -113 35q-13 0 -63.5 -4t-125.5 -31.5
t-92 -44.5q-99 8 -213 76q26 16 89.5 74.5t133 163t112.5 257.5q33 115 33 260q0 46 -3 95v16q0 63 30 79q18 9 40 9q23 0 63.5 -14t94.5 -47q53 -79 53 -189q0 -24 -8 -108t-62 -225.5t-111 -234.5q140 -6 245.5 -64t156.5 -151q36 -64 36 -137q0 -31 -15 -102t-131 -179
q-117 -104 -288 -172.5t-359 -86.5q-52 -5 -103 -5z" />
    <glyph glyph-name="uni512" unicode="&#xfe91;&#xfbfd;&#x621;&#x621;&#x621;" horiz-adv-x="1801" 
d="M1454 -1344q-108 0 -158 107q-19 42 -19 87q0 28 7 58q24 75 93 110q44 23 89 23q27 0 77.5 -14.5t89.5 -107.5q15 -39 15 -78q0 -29 -12.5 -76.5t-82.5 -84.5q-53 -24 -99 -24zM797 -1053q-46 0 -92 4q-239 24 -421 151.5t-250 344.5q-28 88 -28 188q0 147 60 321
q73 182 244.5 393t329.5 340q33 30 86 30q10 0 48.5 -3.5t169.5 -71.5q-53 -81 -169 -192q-96 -91 -199.5 -210t-183.5 -272q-92 -189 -92 -369q0 -55 22.5 -198.5t187.5 -273.5q83 -59 185 -59q15 0 82 5.5t184.5 62.5t208 129t127.5 127q53 84 53 161q0 4 -1 46t-44 104.5
t-107 98.5q-126 69 -245 97q-26 8 -45 26q-14 13 -14 27q0 6 4 18.5t55 26.5q216 72 314 187.5t126.5 269t33.5 342.5l31 1q134 0 243 -48q9 -74 9 -141q0 -112 -32 -232t-107.5 -220.5t-159 -156.5t-146.5 -72q75 -23 174 -84t164 -162q45 -71 45 -161q0 -39 -8 -82
q-37 -147 -219 -281q-165 -124 -351 -175q-138 -37 -273 -37z" />
    <glyph glyph-name="uni513" unicode="&#xfb58;&#xfbfd;&#x621;&#x621;&#x621;" horiz-adv-x="1801" 
d="M1669 -1756q-69 0 -119 42.5t-60 120.5q-2 17 -2 33q0 61 33.5 124t118.5 87q33 7 62 7q62 0 114.5 -41t66.5 -122q4 -21 4 -42q0 -57 -33.5 -119t-130.5 -85q-29 -5 -54 -5zM1766 -1250q-71 0 -120 43q-58 53 -58 152q0 59 31.5 121t108.5 88q34 9 63 9q57 0 111 -40.5
t74 -122.5q7 -27 7 -54q0 -160 -174 -193q-23 -3 -43 -3zM1319 -1379q-65 0 -115 41t-62 119q-3 21 -3 41q0 56 29 117.5t109 86.5q38 9 70 9q59 0 111.5 -39t67.5 -120q5 -25 5 -49q0 -53 -30.5 -114.5t-122.5 -85.5q-32 -6 -59 -6zM797 -1053q-46 0 -92 4
q-239 24 -421 151.5t-250 344.5q-28 88 -28 188q0 147 60 321q73 182 244.5 393t329.5 340q33 30 86 30q10 0 48.5 -3.5t169.5 -71.5q-53 -81 -169 -192q-96 -91 -199.5 -210t-183.5 -272q-92 -189 -92 -369q0 -55 22.5 -198.5t187.5 -273.5q83 -59 185 -59q15 0 82 5.5
t184.5 62.5t208 129t127.5 127q53 84 53 161q0 4 -1 46t-44 104.5t-107 98.5q-126 69 -245 97q-26 8 -45 26q-14 13 -14 27q0 6 4 18.5t55 26.5q216 72 314 187.5t126.5 269t33.5 342.5l31 1q134 0 243 -48q9 -74 9 -141q0 -112 -32 -232t-107.5 -220.5t-159 -156.5
t-146.5 -72q75 -23 174 -84t164 -162q45 -71 45 -161q0 -39 -8 -82q-37 -147 -219 -281q-165 -124 -351 -175q-138 -37 -273 -37z" />
    <glyph glyph-name="uni514" unicode="&#xfe97;&#xfbfd;&#x621;&#x621;&#x621;" horiz-adv-x="1801" 
d="M1156 826q-49 0 -109 29q-73 41 -87 113q-4 22 -4 44q0 49 27.5 107t93.5 87q26 11 54 11q45 0 98 -28q94 -57 94 -169q0 -45 -23.5 -100.5t-89.5 -83.5q-25 -10 -54 -10zM1540 879q-47 0 -98 29q-70 45 -81 119q-3 19 -3 39q0 52 28.5 110t95.5 83q23 9 49 9
q49 0 106 -32q76 -50 87 -122q2 -15 2 -30q0 -56 -34 -113.5t-102 -82.5q-24 -9 -50 -9zM797 -1053q-46 0 -92 4q-239 24 -421 151.5t-250 344.5q-28 88 -28 188q0 147 60 321q73 182 244.5 393t329.5 340q33 30 86 30q10 0 48.5 -3.5t169.5 -71.5q-53 -81 -169 -192
q-96 -91 -199.5 -210t-183.5 -272q-92 -189 -92 -369q0 -55 22.5 -198.5t187.5 -273.5q83 -59 185 -59q15 0 82 5.5t184.5 62.5t208 129t127.5 127q53 84 53 161q0 4 -1 46t-44 104.5t-107 98.5q-126 69 -245 97q-26 8 -45 26q-14 13 -14 27q0 6 4 18.5t55 26.5
q216 72 314 187.5t126.5 269t33.5 342.5l31 1q134 0 243 -48q9 -74 9 -141q0 -112 -32 -232t-107.5 -220.5t-159 -156.5t-146.5 -72q75 -23 174 -84t164 -162q45 -71 45 -161q0 -39 -8 -82q-37 -147 -219 -281q-165 -124 -351 -175q-138 -37 -273 -37z" />
    <glyph glyph-name="uni515" unicode="&#xfe9b;&#xfbfd;&#x621;&#x621;&#x621;" horiz-adv-x="1801" 
d="M1167 1279q-63 0 -115 41t-66 121q-4 21 -4 42q0 57 34 119.5t130 84.5q30 5 56 5q67 0 117 -42t60 -121q2 -17 2 -33q0 -61 -33.5 -123.5t-117.5 -86.5q-34 -7 -63 -7zM1077 774q-57 0 -110.5 40.5t-73.5 121.5q-6 27 -6 54q0 52 32 112t141 82q23 3 43 3q72 0 120 -43
q58 -54 58 -149q0 -62 -31.5 -124t-107.5 -88q-34 -9 -65 -9zM1522 902q-59 0 -111 39t-68 119q-5 25 -5 49q0 54 30.5 115.5t122.5 85.5q31 6 58 6q65 0 115.5 -41t62.5 -120q3 -21 3 -41q0 -56 -29 -117.5t-108 -85.5q-38 -9 -71 -9zM797 -1053q-46 0 -92 4
q-239 24 -421 151.5t-250 344.5q-28 88 -28 188q0 147 60 321q73 182 244.5 393t329.5 340q33 30 86 30q10 0 48.5 -3.5t169.5 -71.5q-53 -81 -169 -192q-96 -91 -199.5 -210t-183.5 -272q-92 -189 -92 -369q0 -55 22.5 -198.5t187.5 -273.5q83 -59 185 -59q15 0 82 5.5
t184.5 62.5t208 129t127.5 127q53 84 53 161q0 4 -1 46t-44 104.5t-107 98.5q-126 69 -245 97q-26 8 -45 26q-14 13 -14 27q0 6 4 18.5t55 26.5q216 72 314 187.5t126.5 269t33.5 342.5l31 1q134 0 243 -48q9 -74 9 -141q0 -112 -32 -232t-107.5 -220.5t-159 -156.5
t-146.5 -72q75 -23 174 -84t164 -162q45 -71 45 -161q0 -39 -8 -82q-37 -147 -219 -281q-165 -124 -351 -175q-138 -37 -273 -37z" />
    <glyph glyph-name="uni516" unicode="&#xfbfe;&#xfbfd;&#x621;&#x621;&#x621;" horiz-adv-x="1801" 
d="M1434 -1298q-49 0 -109 29q-73 41 -87 113q-4 22 -4 44q0 49 27.5 107t93.5 87q26 11 54 11q45 0 98 -28q94 -57 94 -169q0 -45 -23.5 -100.5t-89.5 -83.5q-25 -10 -54 -10zM1818 -1245q-47 0 -98 29q-70 45 -81 119q-3 19 -3 39q0 52 28.5 110t95.5 83q23 9 49 9
q49 0 106 -32q76 -50 87 -122q2 -15 2 -30q0 -56 -34 -113.5t-102 -82.5q-24 -9 -50 -9zM797 -1053q-46 0 -92 4q-239 24 -421 151.5t-250 344.5q-28 88 -28 188q0 147 60 321q73 182 244.5 393t329.5 340q33 30 86 30q10 0 48.5 -3.5t169.5 -71.5q-53 -81 -169 -192
q-96 -91 -199.5 -210t-183.5 -272q-92 -189 -92 -369q0 -55 22.5 -198.5t187.5 -273.5q83 -59 185 -59q15 0 82 5.5t184.5 62.5t208 129t127.5 127q53 84 53 161q0 4 -1 46t-44 104.5t-107 98.5q-126 69 -245 97q-26 8 -45 26q-14 13 -14 27q0 6 4 18.5t55 26.5
q216 72 314 187.5t126.5 269t33.5 342.5l31 1q134 0 243 -48q9 -74 9 -141q0 -112 -32 -232t-107.5 -220.5t-159 -156.5t-146.5 -72q75 -23 174 -84t164 -162q45 -71 45 -161q0 -39 -8 -82q-37 -147 -219 -281q-165 -124 -351 -175q-138 -37 -273 -37z" />
    <glyph glyph-name="uni517" unicode="&#xfee7;&#xfbfd;&#x621;&#x621;&#x621;" horiz-adv-x="1801" 
d="M1198 708q-108 0 -158 107q-19 42 -19 87q0 28 7 58q24 75 93 110q44 23 89 23q27 0 77.5 -14.5t89.5 -107.5q15 -39 15 -78q0 -29 -12.5 -76.5t-82.5 -84.5q-53 -24 -99 -24zM797 -1053q-46 0 -92 4q-239 24 -421 151.5t-250 344.5q-28 88 -28 188q0 147 60 321
q73 182 244.5 393t329.5 340q33 30 86 30q10 0 48.5 -3.5t169.5 -71.5q-53 -81 -169 -192q-96 -91 -199.5 -210t-183.5 -272q-92 -189 -92 -369q0 -55 22.5 -198.5t187.5 -273.5q83 -59 185 -59q15 0 82 5.5t184.5 62.5t208 129t127.5 127q53 84 53 161q0 4 -1 46t-44 104.5
t-107 98.5q-126 69 -245 97q-26 8 -45 26q-14 13 -14 27q0 6 4 18.5t55 26.5q216 72 314 187.5t126.5 269t33.5 342.5l31 1q134 0 243 -48q9 -74 9 -141q0 -112 -32 -232t-107.5 -220.5t-159 -156.5t-146.5 -72q75 -23 174 -84t164 -162q45 -71 45 -161q0 -39 -8 -82
q-37 -147 -219 -281q-165 -124 -351 -175q-138 -37 -273 -37z" />
    <glyph glyph-name="uni518" unicode="&#xfe91;&#xfbfd;&#x621;&#x621;&#x621;&#x621;" horiz-adv-x="1400" 
d="M1207 -1015q-108 0 -158 107q-19 42 -19 87q0 28 7 58q24 75 93 110q44 23 89 23q27 0 77.5 -14.5t89.5 -107.5q15 -39 15 -78q0 -29 -12.5 -76.5t-82.5 -84.5q-53 -24 -99 -24zM672 -732q-51 0 -105 5q-226 28 -350 127q-210 167 -210 488q0 24 4.5 114t44 228.5
t86.5 231t78 110.5q40 7 74 7q35 0 80 -10.5t113 -40.5l4 -2q-11 -66 -33.5 -128t-48.5 -124q-38 -84 -69.5 -181t-38.5 -220v-29q0 -215 86 -321q92 -112 233 -112q120 0 231 73.5t154 208.5q11 42 11 76q0 57 -39 105.5t-125 74.5t-169 35q-44 2 -57 13q-9 8 -9 18
q0 16 22 49l12 21q134 151 165 342q13 81 13 164q0 112 -24 229q22 14 87 14q52 0 109 -12.5t83 -37.5q47 -93 47 -217q0 -27 -7 -119t-56.5 -229t-106.5 -189q213 -48 298 -145q68 -77 68 -165q0 -22 -12 -89.5t-115 -167t-267 -155.5q-120 -40 -261 -40z" />
    <glyph glyph-name="uni519" unicode="&#xfb58;&#xfbfd;&#x621;&#x621;&#x621;&#x621;" horiz-adv-x="1400" 
d="M1225 -1598q-69 0 -119 42.5t-60 120.5q-2 17 -2 33q0 61 33.5 124t118.5 87q33 7 62 7q62 0 114.5 -41t66.5 -122q4 -21 4 -42q0 -57 -33.5 -119t-130.5 -85q-29 -5 -54 -5zM1322 -1092q-71 0 -120 43q-58 53 -58 152q0 59 31.5 121t108.5 88q34 9 63 9q57 0 111 -40.5
t74 -122.5q7 -27 7 -54q0 -160 -174 -193q-23 -3 -43 -3zM875 -1221q-65 0 -115 41t-62 119q-3 21 -3 41q0 56 29 117.5t109 86.5q38 9 70 9q59 0 111.5 -39t67.5 -120q5 -25 5 -49q0 -53 -30.5 -114.5t-122.5 -85.5q-32 -6 -59 -6zM672 -732q-51 0 -105 5q-226 28 -350 127
q-210 167 -210 488q0 24 4.5 114t44 228.5t86.5 231t78 110.5q40 7 74 7q35 0 80 -10.5t113 -40.5l4 -2q-11 -66 -33.5 -128t-48.5 -124q-38 -84 -69.5 -181t-38.5 -220v-29q0 -215 86 -321q92 -112 233 -112q120 0 231 73.5t154 208.5q11 42 11 76q0 57 -39 105.5
t-125 74.5t-169 35q-44 2 -57 13q-9 8 -9 18q0 16 22 49l12 21q134 151 165 342q13 81 13 164q0 112 -24 229q22 14 87 14q52 0 109 -12.5t83 -37.5q47 -93 47 -217q0 -27 -7 -119t-56.5 -229t-106.5 -189q213 -48 298 -145q68 -77 68 -165q0 -22 -12 -89.5t-115 -167
t-267 -155.5q-120 -40 -261 -40z" />
    <glyph glyph-name="uni520" unicode="&#xfe97;&#xfbfd;&#x621;&#x621;&#x621;&#x621;" horiz-adv-x="1397" 
d="M560 837q-49 0 -109 29q-73 41 -87 113q-4 22 -4 44q0 49 27.5 107t93.5 87q26 11 54 11q45 0 98 -28q94 -57 94 -169q0 -45 -23.5 -100.5t-89.5 -83.5q-25 -10 -54 -10zM944 890q-47 0 -98 29q-70 45 -81 119q-3 19 -3 39q0 52 28.5 110t95.5 83q23 9 49 9q49 0 106 -32
q76 -50 87 -122q2 -15 2 -30q0 -56 -34 -113.5t-102 -82.5q-24 -9 -50 -9zM672 -732q-51 0 -105 5q-226 28 -350 127q-210 167 -210 488q0 24 4.5 114t44 228.5t86.5 231t78 110.5q40 7 74 7q35 0 80 -10.5t113 -40.5l4 -2q-11 -66 -33.5 -128t-48.5 -124
q-38 -84 -69.5 -181t-38.5 -220v-29q0 -215 86 -321q92 -112 233 -112q120 0 231 73.5t154 208.5q11 42 11 76q0 57 -39 105.5t-125 74.5t-169 35q-44 2 -57 13q-9 8 -9 18q0 16 22 49l12 21q134 151 165 342q13 81 13 164q0 112 -24 229q22 14 87 14q52 0 109 -12.5
t83 -37.5q47 -93 47 -217q0 -27 -7 -119t-56.5 -229t-106.5 -189q213 -48 298 -145q68 -77 68 -165q0 -22 -12 -89.5t-115 -167t-267 -155.5q-120 -40 -261 -40z" />
    <glyph glyph-name="uni521" unicode="&#xfe9b;&#xfbfd;&#x621;&#x621;&#x621;&#x621;" horiz-adv-x="1400" 
d="M574 1308q-63 0 -115 41t-66 121q-4 21 -4 42q0 57 34 119.5t130 84.5q30 5 56 5q67 0 117 -42t60 -121q2 -17 2 -33q0 -61 -33.5 -123.5t-117.5 -86.5q-34 -7 -63 -7zM484 803q-57 0 -110.5 40.5t-73.5 121.5q-6 27 -6 54q0 52 32 112t141 82q23 3 43 3q72 0 120 -43
q58 -54 58 -149q0 -62 -31.5 -124t-107.5 -88q-34 -9 -65 -9zM929 931q-59 0 -111 39t-68 119q-5 25 -5 49q0 54 30.5 115.5t122.5 85.5q31 6 58 6q65 0 115.5 -41t62.5 -120q3 -21 3 -41q0 -56 -29 -117.5t-108 -85.5q-38 -9 -71 -9zM672 -732q-51 0 -105 5
q-226 28 -350 127q-210 167 -210 488q0 24 4.5 114t44 228.5t86.5 231t78 110.5q40 7 74 7q35 0 80 -10.5t113 -40.5l4 -2q-11 -66 -33.5 -128t-48.5 -124q-38 -84 -69.5 -181t-38.5 -220v-29q0 -215 86 -321q92 -112 233 -112q120 0 231 73.5t154 208.5q11 42 11 76
q0 57 -39 105.5t-125 74.5t-169 35q-44 2 -57 13q-9 8 -9 18q0 16 22 49l12 21q134 151 165 342q13 81 13 164q0 112 -24 229q22 14 87 14q52 0 109 -12.5t83 -37.5q47 -93 47 -217q0 -27 -7 -119t-56.5 -229t-106.5 -189q213 -48 298 -145q68 -77 68 -165q0 -22 -12 -89.5
t-115 -167t-267 -155.5q-120 -40 -261 -40z" />
    <glyph glyph-name="uni522" unicode="&#xfbfe;&#xfbfd;&#x621;&#x621;&#x621;&#x621;" horiz-adv-x="1400" 
d="M907 -1172q-49 0 -109 29q-73 41 -87 113q-4 22 -4 44q0 49 27.5 107t93.5 87q26 11 54 11q45 0 98 -28q94 -57 94 -169q0 -45 -23.5 -100.5t-89.5 -83.5q-25 -10 -54 -10zM1291 -1119q-47 0 -98 29q-70 45 -81 119q-3 19 -3 39q0 52 28.5 110t95.5 83q23 9 49 9
q49 0 106 -32q76 -50 87 -122q2 -15 2 -30q0 -56 -34 -113.5t-102 -82.5q-24 -9 -50 -9zM672 -732q-51 0 -105 5q-226 28 -350 127q-210 167 -210 488q0 24 4.5 114t44 228.5t86.5 231t78 110.5q40 7 74 7q35 0 80 -10.5t113 -40.5l4 -2q-11 -66 -33.5 -128t-48.5 -124
q-38 -84 -69.5 -181t-38.5 -220v-29q0 -215 86 -321q92 -112 233 -112q120 0 231 73.5t154 208.5q11 42 11 76q0 57 -39 105.5t-125 74.5t-169 35q-44 2 -57 13q-9 8 -9 18q0 16 22 49l12 21q134 151 165 342q13 81 13 164q0 112 -24 229q22 14 87 14q52 0 109 -12.5
t83 -37.5q47 -93 47 -217q0 -27 -7 -119t-56.5 -229t-106.5 -189q213 -48 298 -145q68 -77 68 -165q0 -22 -12 -89.5t-115 -167t-267 -155.5q-120 -40 -261 -40z" />
    <glyph glyph-name="uni523" unicode="&#xfee7;&#xfbfd;&#x621;&#x621;&#x621;&#x621;" horiz-adv-x="1400" 
d="M682 871q-108 0 -158 107q-19 42 -19 87q0 28 7 58q24 75 93 110q44 23 89 23q27 0 77.5 -14.5t89.5 -107.5q15 -39 15 -78q0 -29 -12.5 -76.5t-82.5 -84.5q-53 -24 -99 -24zM672 -732q-51 0 -105 5q-226 28 -350 127q-210 167 -210 488q0 24 4.5 114t44 228.5t86.5 231
t78 110.5q40 7 74 7q35 0 80 -10.5t113 -40.5l4 -2q-11 -66 -33.5 -128t-48.5 -124q-38 -84 -69.5 -181t-38.5 -220v-29q0 -215 86 -321q92 -112 233 -112q120 0 231 73.5t154 208.5q11 42 11 76q0 57 -39 105.5t-125 74.5t-169 35q-44 2 -57 13q-9 8 -9 18q0 16 22 49
l12 21q134 151 165 342q13 81 13 164q0 112 -24 229q22 14 87 14q52 0 109 -12.5t83 -37.5q47 -93 47 -217q0 -27 -7 -119t-56.5 -229t-106.5 -189q213 -48 298 -145q68 -77 68 -165q0 -22 -12 -89.5t-115 -167t-267 -155.5q-120 -40 -261 -40z" />
    <glyph glyph-name="uni524" unicode="&#xfe91;&#xfbfd;&#x621;&#x621;&#x621;&#x621;&#x621;" horiz-adv-x="1500" 
d="M1365 -1029q-108 0 -158 107q-19 42 -19 87q0 28 7 58q24 75 93 110q44 23 89 23q27 0 77.5 -14.5t89.5 -107.5q15 -39 15 -78q0 -29 -12.5 -76.5t-82.5 -84.5q-53 -24 -99 -24zM692 -779q-373 0 -569 298q-115 174 -115 409q0 15 3.5 150t178.5 418q46 64 114 64
q12 0 60 -7.5t139 -51.5q0 -35 -18.5 -85.5t-46.5 -113.5q-44 -96 -83 -213t-44 -244v-11q0 -110 38 -217t110.5 -179t170.5 -79h3q90 0 193.5 55t182.5 138q95 100 95 200q0 84 -60.5 139.5t-158.5 82.5t-181 37q-44 3 -53 20q-4 7 -4 15q0 27 43 72q96 105 166.5 232
t81.5 261l1 32q0 118 -72 229q66 35 124 35q39 0 101.5 -28.5t113.5 -123.5q47 -91 47 -190v-12q-7 -114 -53.5 -215t-104.5 -172t-99 -95q65 -11 157 -50t169.5 -106.5t96.5 -160.5q2 -17 2 -33q0 -88 -64 -180.5t-176 -169.5q-218 -150 -489 -150z" />
    <glyph glyph-name="uni525" unicode="&#xfb58;&#xfbfd;&#x621;&#x621;&#x621;&#x621;&#x621;" horiz-adv-x="1500" 
d="M1379 -1613q-69 0 -119 42.5t-60 120.5q-2 17 -2 33q0 61 33.5 124t118.5 87q33 7 62 7q62 0 114.5 -41t66.5 -122q4 -21 4 -42q0 -57 -33.5 -119t-130.5 -85q-29 -5 -54 -5zM1476 -1107q-71 0 -120 43q-58 53 -58 152q0 59 31.5 121t108.5 88q34 9 63 9q57 0 111 -40.5
t74 -122.5q7 -27 7 -54q0 -160 -174 -193q-23 -3 -43 -3zM1029 -1236q-65 0 -115 41t-62 119q-3 21 -3 41q0 56 29 117.5t109 86.5q38 9 70 9q59 0 111.5 -39t67.5 -120q5 -25 5 -49q0 -53 -30.5 -114.5t-122.5 -85.5q-32 -6 -59 -6zM692 -779q-373 0 -569 298
q-115 174 -115 409q0 15 3.5 150t178.5 418q46 64 114 64q12 0 60 -7.5t139 -51.5q0 -35 -18.5 -85.5t-46.5 -113.5q-44 -96 -83 -213t-44 -244v-11q0 -110 38 -217t110.5 -179t170.5 -79h3q90 0 193.5 55t182.5 138q95 100 95 200q0 84 -60.5 139.5t-158.5 82.5t-181 37
q-44 3 -53 20q-4 7 -4 15q0 27 43 72q96 105 166.5 232t81.5 261l1 32q0 118 -72 229q66 35 124 35q39 0 101.5 -28.5t113.5 -123.5q47 -91 47 -190v-12q-7 -114 -53.5 -215t-104.5 -172t-99 -95q65 -11 157 -50t169.5 -106.5t96.5 -160.5q2 -17 2 -33q0 -88 -64 -180.5
t-176 -169.5q-218 -150 -489 -150z" />
    <glyph glyph-name="uni526" unicode="&#xfe97;&#xfbfd;&#x621;&#x621;&#x621;&#x621;&#x621;" horiz-adv-x="1500" 
d="M574 904q-49 0 -109 29q-73 41 -87 113q-4 22 -4 44q0 49 27.5 107t93.5 87q26 11 54 11q45 0 98 -28q94 -57 94 -169q0 -45 -23.5 -100.5t-89.5 -83.5q-25 -10 -54 -10zM958 957q-47 0 -98 29q-70 45 -81 119q-3 19 -3 39q0 52 28.5 110t95.5 83q23 9 49 9q49 0 106 -32
q76 -50 87 -122q2 -15 2 -30q0 -56 -34 -113.5t-102 -82.5q-24 -9 -50 -9zM692 -779q-373 0 -569 298q-115 174 -115 409q0 15 3.5 150t178.5 418q46 64 114 64q12 0 60 -7.5t139 -51.5q0 -35 -18.5 -85.5t-46.5 -113.5q-44 -96 -83 -213t-44 -244v-11q0 -110 38 -217
t110.5 -179t170.5 -79h3q90 0 193.5 55t182.5 138q95 100 95 200q0 84 -60.5 139.5t-158.5 82.5t-181 37q-44 3 -53 20q-4 7 -4 15q0 27 43 72q96 105 166.5 232t81.5 261l1 32q0 118 -72 229q66 35 124 35q39 0 101.5 -28.5t113.5 -123.5q47 -91 47 -190v-12
q-7 -114 -53.5 -215t-104.5 -172t-99 -95q65 -11 157 -50t169.5 -106.5t96.5 -160.5q2 -17 2 -33q0 -88 -64 -180.5t-176 -169.5q-218 -150 -489 -150z" />
    <glyph glyph-name="uni527" unicode="&#xfe9b;&#xfbfd;&#x621;&#x621;&#x621;&#x621;&#x621;" horiz-adv-x="1500" 
d="M608 1339q-63 0 -115 41t-66 121q-4 21 -4 42q0 57 34 119.5t130 84.5q30 5 56 5q67 0 117 -42t60 -121q2 -17 2 -33q0 -61 -33.5 -123.5t-117.5 -86.5q-34 -7 -63 -7zM518 834q-57 0 -110.5 40.5t-73.5 121.5q-6 27 -6 54q0 52 32 112t141 82q23 3 43 3q72 0 120 -43
q58 -54 58 -149q0 -62 -31.5 -124t-107.5 -88q-34 -9 -65 -9zM963 962q-59 0 -111 39t-68 119q-5 25 -5 49q0 54 30.5 115.5t122.5 85.5q31 6 58 6q65 0 115.5 -41t62.5 -120q3 -21 3 -41q0 -56 -29 -117.5t-108 -85.5q-38 -9 -71 -9zM692 -779q-373 0 -569 298
q-115 174 -115 409q0 15 3.5 150t178.5 418q46 64 114 64q12 0 60 -7.5t139 -51.5q0 -35 -18.5 -85.5t-46.5 -113.5q-44 -96 -83 -213t-44 -244v-11q0 -110 38 -217t110.5 -179t170.5 -79h3q90 0 193.5 55t182.5 138q95 100 95 200q0 84 -60.5 139.5t-158.5 82.5t-181 37
q-44 3 -53 20q-4 7 -4 15q0 27 43 72q96 105 166.5 232t81.5 261l1 32q0 118 -72 229q66 35 124 35q39 0 101.5 -28.5t113.5 -123.5q47 -91 47 -190v-12q-7 -114 -53.5 -215t-104.5 -172t-99 -95q65 -11 157 -50t169.5 -106.5t96.5 -160.5q2 -17 2 -33q0 -88 -64 -180.5
t-176 -169.5q-218 -150 -489 -150z" />
    <glyph glyph-name="uni528" unicode="&#xfbfe;&#xfbfd;&#x621;&#x621;&#x621;&#x621;&#x621;" horiz-adv-x="1500" 
d="M1013 -1203q-49 0 -109 29q-73 41 -87 113q-4 22 -4 44q0 49 27.5 107t93.5 87q26 11 54 11q45 0 98 -28q94 -57 94 -169q0 -45 -23.5 -100.5t-89.5 -83.5q-25 -10 -54 -10zM1397 -1150q-47 0 -98 29q-70 45 -81 119q-3 19 -3 39q0 52 28.5 110t95.5 83q23 9 49 9
q49 0 106 -32q76 -50 87 -122q2 -15 2 -30q0 -56 -34 -113.5t-102 -82.5q-24 -9 -50 -9zM692 -779q-373 0 -569 298q-115 174 -115 409q0 15 3.5 150t178.5 418q46 64 114 64q12 0 60 -7.5t139 -51.5q0 -35 -18.5 -85.5t-46.5 -113.5q-44 -96 -83 -213t-44 -244v-11
q0 -110 38 -217t110.5 -179t170.5 -79h3q90 0 193.5 55t182.5 138q95 100 95 200q0 84 -60.5 139.5t-158.5 82.5t-181 37q-44 3 -53 20q-4 7 -4 15q0 27 43 72q96 105 166.5 232t81.5 261l1 32q0 118 -72 229q66 35 124 35q39 0 101.5 -28.5t113.5 -123.5q47 -91 47 -190
v-12q-7 -114 -53.5 -215t-104.5 -172t-99 -95q65 -11 157 -50t169.5 -106.5t96.5 -160.5q2 -17 2 -33q0 -88 -64 -180.5t-176 -169.5q-218 -150 -489 -150z" />
    <glyph glyph-name="uni529" unicode="&#xfee7;&#xfbfd;&#x621;&#x621;&#x621;&#x621;&#x621;" horiz-adv-x="1526" 
d="M608 794q-108 0 -158 107q-19 42 -19 87q0 28 7 58q24 75 93 110q44 23 89 23q27 0 77.5 -14.5t89.5 -107.5q15 -39 15 -78q0 -29 -12.5 -76.5t-82.5 -84.5q-53 -24 -99 -24zM692 -779q-373 0 -569 298q-115 174 -115 409q0 15 3.5 150t178.5 418q46 64 114 64
q12 0 60 -7.5t139 -51.5q0 -35 -18.5 -85.5t-46.5 -113.5q-44 -96 -83 -213t-44 -244v-11q0 -110 38 -217t110.5 -179t170.5 -79h3q90 0 193.5 55t182.5 138q95 100 95 200q0 84 -60.5 139.5t-158.5 82.5t-181 37q-44 3 -53 20q-4 7 -4 15q0 27 43 72q96 105 166.5 232
t81.5 261l1 32q0 118 -72 229q66 35 124 35q39 0 101.5 -28.5t113.5 -123.5q47 -91 47 -190v-12q-7 -114 -53.5 -215t-104.5 -172t-99 -95q65 -11 157 -50t169.5 -106.5t96.5 -160.5q2 -17 2 -33q0 -88 -64 -180.5t-176 -169.5q-218 -150 -489 -150z" />
    <glyph glyph-name="uni530" unicode="&#xfe91;&#xfbfd;&#x621;&#x621;&#x621;&#x621;&#x621;&#x621;" horiz-adv-x="2099" 
d="M1803 -886q-108 0 -158 107q-19 42 -19 87q0 28 7 58q24 75 93 110q44 23 89 23q27 0 77.5 -14.5t89.5 -107.5q15 -39 15 -78q0 -29 -12.5 -76.5t-82.5 -84.5q-53 -24 -99 -24zM993 -614h-29q-215 1 -457 76q-182 64 -348 231q-102 109 -134 244q-19 79 -19 160
q0 58 16.5 158.5t80.5 230.5q89 184 247 307q154 120 360 120q41 0 92.5 -15.5t67.5 -36.5q-178 -96 -323.5 -252t-205.5 -349q-25 -81 -25 -165q0 -115 47 -235q131 -307 535 -353q57 -5 110 -5q257 0 450 119q151 92 151 228v7q-7 64 -72 104.5t-142 58.5t-123 18l-49 -1
q-57 -1 -101 -4q-99 2 -137 33q-24 19 -24 38q0 11 16.5 33t100.5 25q200 25 339.5 123.5t185.5 252.5q17 56 17 117q0 108 -52 232q45 16 86 16q32 0 81 -16t107 -76q82 -84 98 -183q5 -32 5 -63q0 -66 -29 -135.5t-85 -124.5q-39 -39 -81 -66q-37 -24 -137 -78
q-19 -11 -19 -30q0 -8 8.5 -13t33.5 -10q180 -51 269 -177q32 -55 32 -111q0 -24 -13.5 -77t-61.5 -108q-90 -101 -242 -155q-258 -93 -627 -93z" />
    <glyph glyph-name="uni531" unicode="&#xfb58;&#xfbfd;&#x621;&#x621;&#x621;&#x621;&#x621;&#x621;" horiz-adv-x="2102" 
d="M1803 -1478q-69 0 -119 42.5t-60 120.5q-2 17 -2 33q0 61 33.5 124t118.5 87q33 7 62 7q62 0 114.5 -41t66.5 -122q4 -21 4 -42q0 -57 -33.5 -119t-130.5 -85q-29 -5 -54 -5zM1900 -972q-71 0 -120 43q-58 53 -58 152q0 59 31.5 121t108.5 88q34 9 63 9q57 0 111 -40.5
t74 -122.5q7 -27 7 -54q0 -160 -174 -193q-23 -3 -43 -3zM1453 -1101q-65 0 -115 41t-62 119q-3 21 -3 41q0 56 29 117.5t109 86.5q38 9 70 9q59 0 111.5 -39t67.5 -120q5 -25 5 -49q0 -53 -30.5 -114.5t-122.5 -85.5q-32 -6 -59 -6zM993 -614h-29q-215 1 -457 76
q-182 64 -348 231q-102 109 -134 244q-19 79 -19 160q0 58 16.5 158.5t80.5 230.5q89 184 247 307q154 120 360 120q41 0 92.5 -15.5t67.5 -36.5q-178 -96 -323.5 -252t-205.5 -349q-25 -81 -25 -165q0 -115 47 -235q131 -307 535 -353q57 -5 110 -5q257 0 450 119
q151 92 151 228v7q-7 64 -72 104.5t-142 58.5t-123 18l-49 -1q-57 -1 -101 -4q-99 2 -137 33q-24 19 -24 38q0 11 16.5 33t100.5 25q200 25 339.5 123.5t185.5 252.5q17 56 17 117q0 108 -52 232q45 16 86 16q32 0 81 -16t107 -76q82 -84 98 -183q5 -32 5 -63
q0 -66 -29 -135.5t-85 -124.5q-39 -39 -81 -66q-37 -24 -137 -78q-19 -11 -19 -30q0 -8 8.5 -13t33.5 -10q180 -51 269 -177q32 -55 32 -111q0 -24 -13.5 -77t-61.5 -108q-90 -101 -242 -155q-258 -93 -627 -93z" />
    <glyph glyph-name="uni532" unicode="&#xfe97;&#xfbfd;&#x621;&#x621;&#x621;&#x621;&#x621;&#x621;" horiz-adv-x="2099" 
d="M1286 418q-50 0 -108 27t-87 93q-11 26 -11 54q0 46 28 99q58 94 169 94q45 0 100.5 -23.5t83.5 -89.5q11 -25 11 -55q0 -48 -29 -108q-41 -73 -113 -87q-22 -4 -44 -4zM1233 819q-53 0 -111 29t-84 96q-9 23 -9 48q0 48 33 107q49 76 121 86q16 2 31 2q56 0 113 -33.5
t82 -101.5q9 -25 9 -51q0 -47 -29 -98q-55 -84 -156 -84zM993 -614h-29q-215 1 -457 76q-182 64 -348 231q-102 109 -134 244q-19 79 -19 160q0 58 16.5 158.5t80.5 230.5q89 184 247 307q154 120 360 120q41 0 92.5 -15.5t67.5 -36.5q-178 -96 -323.5 -252t-205.5 -349
q-25 -81 -25 -165q0 -115 47 -235q131 -307 535 -353q57 -5 110 -5q257 0 450 119q151 92 151 228v7q-7 64 -72 104.5t-142 58.5t-123 18l-49 -1q-57 -1 -101 -4q-99 2 -137 33q-24 19 -24 38q0 11 16.5 33t100.5 25q200 25 339.5 123.5t185.5 252.5q17 56 17 117
q0 108 -52 232q45 16 86 16q32 0 81 -16t107 -76q82 -84 98 -183q5 -32 5 -63q0 -66 -29 -135.5t-85 -124.5q-39 -39 -81 -66q-37 -24 -137 -78q-19 -11 -19 -30q0 -8 8.5 -13t33.5 -10q180 -51 269 -177q32 -55 32 -111q0 -24 -13.5 -77t-61.5 -108q-90 -101 -242 -155
q-258 -93 -627 -93z" />
    <glyph glyph-name="uni533" unicode="&#xfe9b;&#xfbfd;&#x621;&#x621;&#x621;&#x621;&#x621;&#x621;" horiz-adv-x="2099" 
d="M1253 1328q-63 0 -115 41t-66 121q-4 21 -4 42q0 57 34 119.5t130 84.5q30 5 56 5q67 0 117 -42t60 -121q2 -17 2 -33q0 -61 -33.5 -123.5t-117.5 -86.5q-34 -7 -63 -7zM1163 823q-57 0 -110.5 40.5t-73.5 121.5q-6 27 -6 54q0 52 32 112t141 82q23 3 43 3q72 0 120 -43
q58 -54 58 -149q0 -62 -31.5 -124t-107.5 -88q-34 -9 -65 -9zM1608 951q-59 0 -111 39t-68 119q-5 25 -5 49q0 54 30.5 115.5t122.5 85.5q31 6 58 6q65 0 115.5 -41t62.5 -120q3 -21 3 -41q0 -56 -29 -117.5t-108 -85.5q-38 -9 -71 -9zM993 -614h-29q-215 1 -457 76
q-182 64 -348 231q-102 109 -134 244q-19 79 -19 160q0 58 16.5 158.5t80.5 230.5q89 184 247 307q154 120 360 120q41 0 92.5 -15.5t67.5 -36.5q-178 -96 -323.5 -252t-205.5 -349q-25 -81 -25 -165q0 -115 47 -235q131 -307 535 -353q57 -5 110 -5q257 0 450 119
q151 92 151 228v7q-7 64 -72 104.5t-142 58.5t-123 18l-49 -1q-57 -1 -101 -4q-99 2 -137 33q-24 19 -24 38q0 11 16.5 33t100.5 25q200 25 339.5 123.5t185.5 252.5q17 56 17 117q0 108 -52 232q45 16 86 16q32 0 81 -16t107 -76q82 -84 98 -183q5 -32 5 -63
q0 -66 -29 -135.5t-85 -124.5q-39 -39 -81 -66q-37 -24 -137 -78q-19 -11 -19 -30q0 -8 8.5 -13t33.5 -10q180 -51 269 -177q32 -55 32 -111q0 -24 -13.5 -77t-61.5 -108q-90 -101 -242 -155q-258 -93 -627 -93z" />
    <glyph glyph-name="uni534" unicode="&#xfbfe;&#xfbfd;&#x621;&#x621;&#x621;&#x621;&#x621;&#x621;" horiz-adv-x="2099" 
d="M1485 -1017q-49 0 -109 29q-73 41 -87 113q-4 22 -4 44q0 49 27.5 107t93.5 87q26 11 54 11q45 0 98 -28q94 -57 94 -169q0 -45 -23.5 -100.5t-89.5 -83.5q-25 -10 -54 -10zM1869 -964q-47 0 -98 29q-70 45 -81 119q-3 19 -3 39q0 52 28.5 110t95.5 83q23 9 49 9
q49 0 106 -32q76 -50 87 -122q2 -15 2 -30q0 -56 -34 -113.5t-102 -82.5q-24 -9 -50 -9zM993 -614h-29q-215 1 -457 76q-182 64 -348 231q-102 109 -134 244q-19 79 -19 160q0 58 16.5 158.5t80.5 230.5q89 184 247 307q154 120 360 120q41 0 92.5 -15.5t67.5 -36.5
q-178 -96 -323.5 -252t-205.5 -349q-25 -81 -25 -165q0 -115 47 -235q131 -307 535 -353q57 -5 110 -5q257 0 450 119q151 92 151 228v7q-7 64 -72 104.5t-142 58.5t-123 18l-49 -1q-57 -1 -101 -4q-99 2 -137 33q-24 19 -24 38q0 11 16.5 33t100.5 25q200 25 339.5 123.5
t185.5 252.5q17 56 17 117q0 108 -52 232q45 16 86 16q32 0 81 -16t107 -76q82 -84 98 -183q5 -32 5 -63q0 -66 -29 -135.5t-85 -124.5q-39 -39 -81 -66q-37 -24 -137 -78q-19 -11 -19 -30q0 -8 8.5 -13t33.5 -10q180 -51 269 -177q32 -55 32 -111q0 -24 -13.5 -77
t-61.5 -108q-90 -101 -242 -155q-258 -93 -627 -93z" />
    <glyph glyph-name="uni535" unicode="&#xfee7;&#xfbfd;&#x621;&#x621;&#x621;&#x621;&#x621;&#x621;" horiz-adv-x="2099" 
d="M1250 427q-108 0 -158 107q-19 42 -19 87q0 28 7 58q24 75 93 110q44 23 89 23q27 0 77.5 -14.5t89.5 -107.5q15 -39 15 -78q0 -29 -12.5 -76.5t-82.5 -84.5q-53 -24 -99 -24zM993 -614h-29q-215 1 -457 76q-182 64 -348 231q-102 109 -134 244q-19 79 -19 160
q0 58 16.5 158.5t80.5 230.5q89 184 247 307q154 120 360 120q41 0 92.5 -15.5t67.5 -36.5q-178 -96 -323.5 -252t-205.5 -349q-25 -81 -25 -165q0 -115 47 -235q131 -307 535 -353q57 -5 110 -5q257 0 450 119q151 92 151 228v7q-7 64 -72 104.5t-142 58.5t-123 18l-49 -1
q-57 -1 -101 -4q-99 2 -137 33q-24 19 -24 38q0 11 16.5 33t100.5 25q200 25 339.5 123.5t185.5 252.5q17 56 17 117q0 108 -52 232q45 16 86 16q32 0 81 -16t107 -76q82 -84 98 -183q5 -32 5 -63q0 -66 -29 -135.5t-85 -124.5q-39 -39 -81 -66q-37 -24 -137 -78
q-19 -11 -19 -30q0 -8 8.5 -13t33.5 -10q180 -51 269 -177q32 -55 32 -111q0 -24 -13.5 -77t-61.5 -108q-90 -101 -242 -155q-258 -93 -627 -93z" />
    <glyph glyph-name="uni536" unicode="&#xfe91;&#xfbfd;&#x621;&#x621;&#x621;&#x621;&#x621;&#x621;&#x621;" horiz-adv-x="1300" 
d="M605 -422q-108 0 -158 107q-19 42 -19 87q0 28 7 58q24 75 93 110q44 23 89 23q27 0 77.5 -14.5t89.5 -107.5q15 -39 15 -78q0 -29 -12.5 -76.5t-82.5 -84.5q-53 -24 -99 -24zM723 -743q296 0 622 98q504 149 531 335q3 21 3 46q0 59 -16 144q-194 -116 -367 -193
q-88 -40 -235 -80t-314 -64q-129 -19 -247 -19q-35 0 -126 4t-181 58q-96 64 -122 154q-9 32 -9 61q0 166 206 198q44 4 90 4q40 0 81 -2.5t80 -2.5q40 0 98.5 4t127.5 43q59 34 114 98.5t86 165.5q22 72 22 165q0 37 -3 76q-14 123 -41 223l-277 -22q3 -24 8 -52
q14 -75 24 -167v-18q0 -103 -34 -158.5t-85 -73.5q-34 -13 -81 -13q-30 0 -62 4.5t-68 4.5q-48 0 -103 -9q-198 -44 -318 -193q-103 -127 -119 -290l-1 -28q0 -113 54 -211t135 -156q137 -97 332 -122q95 -12 195 -12z" />
    <glyph glyph-name="uni537" unicode="&#xfb58;&#xfbfd;&#x621;&#x621;&#x621;&#x621;&#x621;&#x621;&#x621;" horiz-adv-x="1300" 
d="M1225 -1598q-69 0 -119 42.5t-60 120.5q-2 17 -2 33q0 61 33.5 124t118.5 87q33 7 62 7q62 0 114.5 -41t66.5 -122q4 -21 4 -42q0 -57 -33.5 -119t-130.5 -85q-29 -5 -54 -5zM1322 -1092q-71 0 -120 43q-58 53 -58 152q0 59 31.5 121t108.5 88q34 9 63 9q57 0 111 -40.5
t74 -122.5q7 -27 7 -54q0 -160 -174 -193q-23 -3 -43 -3zM875 -1221q-65 0 -115 41t-62 119q-3 21 -3 41q0 56 29 117.5t109 86.5q38 9 70 9q59 0 111.5 -39t67.5 -120q5 -25 5 -49q0 -53 -30.5 -114.5t-122.5 -85.5q-32 -6 -59 -6zM723 -743q296 0 622 98q504 149 531 335
q3 21 3 46q0 59 -16 144q-194 -116 -367 -193q-88 -40 -235 -80t-314 -64q-129 -19 -247 -19q-35 0 -126 4t-181 58q-96 64 -122 154q-9 32 -9 61q0 166 206 198q44 4 90 4q40 0 81 -2.5t80 -2.5q40 0 98.5 4t127.5 43q59 34 114 98.5t86 165.5q22 72 22 165q0 37 -3 76
q-14 123 -41 223l-277 -22q3 -24 8 -52q14 -75 24 -167v-18q0 -103 -34 -158.5t-85 -73.5q-34 -13 -81 -13q-30 0 -62 4.5t-68 4.5q-48 0 -103 -9q-198 -44 -318 -193q-103 -127 -119 -290l-1 -28q0 -113 54 -211t135 -156q137 -97 332 -122q95 -12 195 -12z" />
    <glyph glyph-name="uni538" unicode="&#xfe97;&#xfbfd;&#x621;&#x621;&#x621;&#x621;&#x621;&#x621;&#x621;" horiz-adv-x="1300" 
d="M560 837q-49 0 -109 29q-73 41 -87 113q-4 22 -4 44q0 49 27.5 107t93.5 87q26 11 54 11q45 0 98 -28q94 -57 94 -169q0 -45 -23.5 -100.5t-89.5 -83.5q-25 -10 -54 -10zM944 890q-47 0 -98 29q-70 45 -81 119q-3 19 -3 39q0 52 28.5 110t95.5 83q23 9 49 9q49 0 106 -32
q76 -50 87 -122q2 -15 2 -30q0 -56 -34 -113.5t-102 -82.5q-24 -9 -50 -9zM723 -743q296 0 622 98q504 149 531 335q3 21 3 46q0 59 -16 144q-194 -116 -367 -193q-88 -40 -235 -80t-314 -64q-129 -19 -247 -19q-35 0 -126 4t-181 58q-96 64 -122 154q-9 32 -9 61
q0 166 206 198q44 4 90 4q40 0 81 -2.5t80 -2.5q40 0 98.5 4t127.5 43q59 34 114 98.5t86 165.5q22 72 22 165q0 37 -3 76q-14 123 -41 223l-277 -22q3 -24 8 -52q14 -75 24 -167v-18q0 -103 -34 -158.5t-85 -73.5q-34 -13 -81 -13q-30 0 -62 4.5t-68 4.5q-48 0 -103 -9
q-198 -44 -318 -193q-103 -127 -119 -290l-1 -28q0 -113 54 -211t135 -156q137 -97 332 -122q95 -12 195 -12z" />
    <glyph glyph-name="uni539" unicode="&#xfe9b;&#xfbfd;&#x621;&#x621;&#x621;&#x621;&#x621;&#x621;&#x621;" horiz-adv-x="1300" 
d="M574 1308q-63 0 -115 41t-66 121q-4 21 -4 42q0 57 34 119.5t130 84.5q30 5 56 5q67 0 117 -42t60 -121q2 -17 2 -33q0 -61 -33.5 -123.5t-117.5 -86.5q-34 -7 -63 -7zM484 803q-57 0 -110.5 40.5t-73.5 121.5q-6 27 -6 54q0 52 32 112t141 82q23 3 43 3q72 0 120 -43
q58 -54 58 -149q0 -62 -31.5 -124t-107.5 -88q-34 -9 -65 -9zM929 931q-59 0 -111 39t-68 119q-5 25 -5 49q0 54 30.5 115.5t122.5 85.5q31 6 58 6q65 0 115.5 -41t62.5 -120q3 -21 3 -41q0 -56 -29 -117.5t-108 -85.5q-38 -9 -71 -9zM723 -743q296 0 622 98
q504 149 531 335q3 21 3 46q0 59 -16 144q-194 -116 -367 -193q-88 -40 -235 -80t-314 -64q-129 -19 -247 -19q-35 0 -126 4t-181 58q-96 64 -122 154q-9 32 -9 61q0 166 206 198q44 4 90 4q40 0 81 -2.5t80 -2.5q40 0 98.5 4t127.5 43q59 34 114 98.5t86 165.5
q22 72 22 165q0 37 -3 76q-14 123 -41 223l-277 -22q3 -24 8 -52q14 -75 24 -167v-18q0 -103 -34 -158.5t-85 -73.5q-34 -13 -81 -13q-30 0 -62 4.5t-68 4.5q-48 0 -103 -9q-198 -44 -318 -193q-103 -127 -119 -290l-1 -28q0 -113 54 -211t135 -156q137 -97 332 -122
q95 -12 195 -12z" />
    <glyph glyph-name="uni540" unicode="&#xfbfe;&#xfbfd;&#x621;&#x621;&#x621;&#x621;&#x621;&#x621;&#x621;" horiz-adv-x="1300" 
d="M669 -435q-49 0 -109 29q-73 41 -87 113q-4 22 -4 44q0 49 27.5 107t93.5 87q26 11 54 11q45 0 98 -28q94 -57 94 -169q0 -45 -23.5 -100.5t-89.5 -83.5q-25 -10 -54 -10zM1053 -382q-47 0 -98 29q-70 45 -81 119q-3 19 -3 39q0 52 28.5 110t95.5 83q23 9 49 9
q49 0 106 -32q76 -50 87 -122q2 -15 2 -30q0 -56 -34 -113.5t-102 -82.5q-24 -9 -50 -9zM723 -743q296 0 622 98q504 149 531 335q3 21 3 46q0 59 -16 144q-194 -116 -367 -193q-88 -40 -235 -80t-314 -64q-129 -19 -247 -19q-35 0 -126 4t-181 58q-96 64 -122 154
q-9 32 -9 61q0 166 206 198q44 4 90 4q40 0 81 -2.5t80 -2.5q40 0 98.5 4t127.5 43q59 34 114 98.5t86 165.5q22 72 22 165q0 37 -3 76q-14 123 -41 223l-277 -22q3 -24 8 -52q14 -75 24 -167v-18q0 -103 -34 -158.5t-85 -73.5q-34 -13 -81 -13q-30 0 -62 4.5t-68 4.5
q-48 0 -103 -9q-198 -44 -318 -193q-103 -127 -119 -290l-1 -28q0 -113 54 -211t135 -156q137 -97 332 -122q95 -12 195 -12z" />
    <glyph glyph-name="uni541" unicode="&#xfee7;&#xfbfd;&#x621;&#x621;&#x621;&#x621;&#x621;&#x621;&#x621;" horiz-adv-x="1300" 
d="M682 871q-108 0 -158 107q-19 42 -19 87q0 28 7 58q24 75 93 110q44 23 89 23q27 0 77.5 -14.5t89.5 -107.5q15 -39 15 -78q0 -29 -12.5 -76.5t-82.5 -84.5q-53 -24 -99 -24zM723 -743q296 0 622 98q504 149 531 335q3 21 3 46q0 59 -16 144q-194 -116 -367 -193
q-88 -40 -235 -80t-314 -64q-129 -19 -247 -19q-35 0 -126 4t-181 58q-96 64 -122 154q-9 32 -9 61q0 166 206 198q44 4 90 4q40 0 81 -2.5t80 -2.5q40 0 98.5 4t127.5 43q59 34 114 98.5t86 165.5q22 72 22 165q0 37 -3 76q-14 123 -41 223l-277 -22q3 -24 8 -52
q14 -75 24 -167v-18q0 -103 -34 -158.5t-85 -73.5q-34 -13 -81 -13q-30 0 -62 4.5t-68 4.5q-48 0 -103 -9q-198 -44 -318 -193q-103 -127 -119 -290l-1 -28q0 -113 54 -211t135 -156q137 -97 332 -122q95 -12 195 -12z" />
    <glyph glyph-name="uni542" unicode="&#xfea4;&#xfbfd;&#x621;&#x621;" horiz-adv-x="2099" 
d="M993 -643h-29q-215 0 -457 76q-182 63 -348 230q-102 110 -134 245q-19 79 -19 159q0 59 16.5 159.5t80.5 229.5q89 185 246 306.5t365 121.5q33 0 90 -16q50 -15 66 -36q-178 -97 -323.5 -252.5t-205.5 -348.5q-25 -81 -25 -165q0 -116 47 -236q131 -307 535 -353
q57 -5 110 -5q174 0 318 54q283 107 283 294v7q-7 67 -80 104t-171 52.5t-178 17.5l-66 1q-31 -2 -62 -2l-96 -1q-28 0 -47 19.5t-19 46.5q0 28 19 47t47 19q119 1 249 44.5t235.5 124.5t151.5 193q33 89 33 157q0 38 -19 97.5t-108 94.5q-56 22 -128 22q-43 0 -92 -8l-3 -1
q-80 -15 -145 -17q-54 1 -85 30q-19 17 -19 37q0 13 13 36.5t108 41.5t191 18q47 0 143 -7.5t216 -59t186 -144.5q50 -72 50 -171q0 -30 -4 -61q-9 -79 -9 -160q0 -15 1 -71t49 -124t174 -72q27 0 46.5 -19t19.5 -47q0 -27 -19.5 -46.5t-46.5 -19.5h-2q-178 3 -302 51
t-194 120q-57 -35 -122 -65q276 -48 381 -205q32 -55 32 -111q0 -24 -13.5 -76.5t-61.5 -108.5q-90 -101 -242 -155q-259 -92 -627 -92z" />
    <glyph glyph-name="uni543" unicode="&#xfea8;&#xfbfd;&#x621;&#x621;" horiz-adv-x="2099" 
d="M993 -643h-29q-215 0 -457 76q-182 63 -348 230q-102 110 -134 245q-19 79 -19 159q0 59 16.5 159.5t80.5 229.5q89 185 246 306.5t365 121.5q33 0 90 -16q50 -15 66 -36q-178 -97 -323.5 -252.5t-205.5 -348.5q-25 -81 -25 -165q0 -116 47 -236q131 -307 535 -353
q57 -5 110 -5q174 0 318 54q283 107 283 294v7q-7 67 -80 104t-171 52.5t-178 17.5l-66 1q-31 -2 -62 -2l-96 -1q-28 0 -47 19.5t-19 46.5q0 28 19 47t47 19q119 1 249 44.5t235.5 124.5t151.5 193q33 89 33 157q0 38 -19 97.5t-108 94.5q-56 22 -128 22q-43 0 -92 -8l-3 -1
q-80 -15 -145 -17q-54 1 -85 30q-19 17 -19 37q0 13 13 36.5t108 41.5t191 18q47 0 143 -7.5t216 -59t186 -144.5q50 -72 50 -171q0 -30 -4 -61q-9 -79 -9 -160q0 -15 1 -71t49 -124t174 -72q27 0 46.5 -19t19.5 -47q0 -27 -19.5 -46.5t-46.5 -19.5h-2q-178 3 -302 51
t-194 120q-57 -35 -122 -65q276 -48 381 -205q32 -55 32 -111q0 -24 -13.5 -76.5t-61.5 -108.5q-90 -101 -242 -155q-259 -92 -627 -92zM1803 -1478q-69 0 -119 42.5t-60 120.5q-2 17 -2 33q0 61 33.5 124t118.5 87q33 7 62 7q62 0 114.5 -41t66.5 -122q4 -21 4 -42
q0 -57 -33.5 -119t-130.5 -85q-29 -5 -54 -5zM1900 -972q-71 0 -120 43q-58 53 -58 152q0 59 31.5 121t108.5 88q34 9 63 9q57 0 111 -40.5t74 -122.5q7 -27 7 -54q0 -160 -174 -193q-23 -3 -43 -3zM1453 -1101q-65 0 -115 41t-62 119q-3 21 -3 41q0 56 29 117.5t109 86.5
q38 9 70 9q59 0 111.5 -39t67.5 -120q5 -25 5 -49q0 -53 -30.5 -114.5t-122.5 -85.5q-32 -6 -59 -6z" />
    <glyph glyph-name="uni544" unicode="&#xfea0;&#xfbfd;&#x621;&#x621;" horiz-adv-x="2099" 
d="M993 -643h-29q-215 0 -457 76q-182 63 -348 230q-102 110 -134 245q-19 79 -19 159q0 59 16.5 159.5t80.5 229.5q89 185 246 306.5t365 121.5q33 0 90 -16q50 -15 66 -36q-178 -97 -323.5 -252.5t-205.5 -348.5q-25 -81 -25 -165q0 -116 47 -236q131 -307 535 -353
q57 -5 110 -5q174 0 318 54q283 107 283 294v7q-7 67 -80 104t-171 52.5t-178 17.5l-66 1q-31 -2 -62 -2l-96 -1q-28 0 -47 19.5t-19 46.5q0 28 19 47t47 19q119 1 249 44.5t235.5 124.5t151.5 193q33 89 33 157q0 38 -19 97.5t-108 94.5q-56 22 -128 22q-43 0 -92 -8l-3 -1
q-80 -15 -145 -17q-54 1 -85 30q-19 17 -19 37q0 13 13 36.5t108 41.5t191 18q47 0 143 -7.5t216 -59t186 -144.5q50 -72 50 -171q0 -30 -4 -61q-9 -79 -9 -160q0 -15 1 -71t49 -124t174 -72q27 0 46.5 -19t19.5 -47q0 -27 -19.5 -46.5t-46.5 -19.5h-2q-178 3 -302 51
t-194 120q-57 -35 -122 -65q276 -48 381 -205q32 -55 32 -111q0 -24 -13.5 -76.5t-61.5 -108.5q-90 -101 -242 -155q-259 -92 -627 -92zM1880 -908q-108 0 -158 107q-19 42 -19 87q0 28 7 58q24 75 93 110q44 23 89 23q27 0 77.5 -14.5t89.5 -107.5q15 -39 15 -78
q0 -29 -12.5 -76.5t-82.5 -84.5q-53 -24 -99 -24z" />
    <glyph glyph-name="uni545" unicode="&#xfb7d;&#xfbfd;&#x621;&#x621;" horiz-adv-x="2099" 
d="M993 -643h-29q-215 0 -457 76q-182 63 -348 230q-102 110 -134 245q-19 79 -19 159q0 59 16.5 159.5t80.5 229.5q89 185 246 306.5t365 121.5q33 0 90 -16q50 -15 66 -36q-178 -97 -323.5 -252.5t-205.5 -348.5q-25 -81 -25 -165q0 -116 47 -236q131 -307 535 -353
q57 -5 110 -5q174 0 318 54q283 107 283 294v7q-7 67 -80 104t-171 52.5t-178 17.5l-66 1q-31 -2 -62 -2l-96 -1q-28 0 -47 19.5t-19 46.5q0 28 19 47t47 19q119 1 249 44.5t235.5 124.5t151.5 193q33 89 33 157q0 38 -19 97.5t-108 94.5q-56 22 -128 22q-43 0 -92 -8l-3 -1
q-80 -15 -145 -17q-54 1 -85 30q-19 17 -19 37q0 13 13 36.5t108 41.5t191 18q47 0 143 -7.5t216 -59t186 -144.5q50 -72 50 -171q0 -30 -4 -61q-9 -79 -9 -160q0 -15 1 -71t49 -124t174 -72q27 0 46.5 -19t19.5 -47q0 -27 -19.5 -46.5t-46.5 -19.5h-2q-178 3 -302 51
t-194 120q-57 -35 -122 -65q276 -48 381 -205q32 -55 32 -111q0 -24 -13.5 -76.5t-61.5 -108.5q-90 -101 -242 -155q-259 -92 -627 -92zM1227 1095q-108 0 -158 107q-19 42 -19 87q0 28 7 58q24 75 93 110q44 23 89 23q27 0 77.5 -14.5t89.5 -107.5q15 -39 15 -78
q0 -29 -12.5 -76.5t-82.5 -84.5q-53 -24 -99 -24z" />
    <glyph glyph-name="uni546" unicode="&#xfea4;&#xfbfd;&#x621;&#x621;&#x621;" horiz-adv-x="1956" 
d="M685 -785q-87 0 -230 23.5t-281.5 152.5t-164.5 374q-1 21 -1 43q0 132 55.5 291t149.5 301.5t188 206.5q72 -5 113.5 -20.5t91.5 -45.5l18 -10q-11 -51 -44.5 -103t-78.5 -111q-75 -91 -142 -212t-82 -288q-2 -35 -2 -67q0 -205 85.5 -309t234.5 -104q145 0 299.5 69.5
t270.5 173.5q150 134 150 253q0 37 -19.5 76.5t-68 66t-100.5 26.5h-169q-37 -3 -73 -3h-92q-28 0 -47.5 19t-19.5 47q0 27 19.5 46t47.5 19q118 1 248 44.5t236 124.5t152 193q33 90 33 158q0 37 -19 96.5t-108 94.5q-56 22 -128 22q-43 0 -92 -8l-4 -1q-79 -15 -144 -17
q-55 1 -86 30q-19 17 -19 37q0 13 13 36.5t109.5 41.5t195.5 18q44 0 138.5 -7.5t215 -59t186.5 -144.5q50 -72 50 -171q0 -29 -4 -60q-9 -80 -9 -161q0 -15 1 -71t48.5 -124t174.5 -72q27 0 46.5 -19t19.5 -46q0 -28 -19.5 -47t-46.5 -19q-175 0 -304 50q-124 48 -195 121
q-86 -55 -191 -94q198 -79 257 -178q35 -72 35 -141q0 -73 -56.5 -174.5t-225 -200t-378.5 -142.5q-120 -25 -238 -25z" />
    <glyph glyph-name="uni547" unicode="&#xfb7d;&#xfbfd;&#x621;&#x621;&#x621;" horiz-adv-x="1950" 
d="M685 -785q-87 0 -230 23.5t-281.5 152.5t-164.5 374q-1 21 -1 43q0 132 55.5 291t149.5 301.5t188 206.5q72 -5 113.5 -20.5t91.5 -45.5l18 -10q-11 -51 -44.5 -103t-78.5 -111q-75 -91 -142 -212t-82 -288q-2 -35 -2 -67q0 -205 85.5 -309t234.5 -104q145 0 299.5 69.5
t270.5 173.5q150 134 150 253q0 37 -19.5 76.5t-68 66t-100.5 26.5h-169q-37 -3 -73 -3h-92q-28 0 -47.5 19t-19.5 47q0 27 19.5 46t47.5 19q118 1 248 44.5t236 124.5t152 193q33 90 33 158q0 37 -19 96.5t-108 94.5q-56 22 -128 22q-43 0 -92 -8l-4 -1q-79 -15 -144 -17
q-55 1 -86 30q-19 17 -19 37q0 13 13 36.5t109.5 41.5t195.5 18q44 0 138.5 -7.5t215 -59t186.5 -144.5q50 -72 50 -171q0 -29 -4 -60q-9 -80 -9 -161q0 -15 1 -71t48.5 -124t174.5 -72q27 0 46.5 -19t19.5 -46q0 -28 -19.5 -47t-46.5 -19q-175 0 -304 50q-124 48 -195 121
q-86 -55 -191 -94q198 -79 257 -178q35 -72 35 -141q0 -73 -56.5 -174.5t-225 -200t-378.5 -142.5q-120 -25 -238 -25zM1803 -1478q-69 0 -119 42.5t-60 120.5q-2 17 -2 33q0 61 33.5 124t118.5 87q33 7 62 7q62 0 114.5 -41t66.5 -122q4 -21 4 -42q0 -57 -33.5 -119
t-130.5 -85q-29 -5 -54 -5zM1900 -972q-71 0 -120 43q-58 53 -58 152q0 59 31.5 121t108.5 88q34 9 63 9q57 0 111 -40.5t74 -122.5q7 -27 7 -54q0 -160 -174 -193q-23 -3 -43 -3zM1453 -1101q-65 0 -115 41t-62 119q-3 21 -3 41q0 56 29 117.5t109 86.5q38 9 70 9
q59 0 111.5 -39t67.5 -120q5 -25 5 -49q0 -53 -30.5 -114.5t-122.5 -85.5q-32 -6 -59 -6z" />
    <glyph glyph-name="uni548" unicode="&#xfea0;&#xfbfd;&#x621;&#x621;&#x621;" horiz-adv-x="1939" 
d="M1880 -908q-108 0 -158 107q-19 42 -19 87q0 28 7 58q24 75 93 110q44 23 89 23q27 0 77.5 -14.5t89.5 -107.5q15 -39 15 -78q0 -29 -12.5 -76.5t-82.5 -84.5q-53 -24 -99 -24zM685 -785q-87 0 -230 23.5t-281.5 152.5t-164.5 374q-1 21 -1 43q0 132 55.5 291
t149.5 301.5t188 206.5q72 -5 113.5 -20.5t91.5 -45.5l18 -10q-11 -51 -44.5 -103t-78.5 -111q-75 -91 -142 -212t-82 -288q-2 -35 -2 -67q0 -205 85.5 -309t234.5 -104q145 0 299.5 69.5t270.5 173.5q150 134 150 253q0 37 -19.5 76.5t-68 66t-100.5 26.5h-169
q-37 -3 -73 -3h-92q-28 0 -47.5 19t-19.5 47q0 27 19.5 46t47.5 19q118 1 248 44.5t236 124.5t152 193q33 90 33 158q0 37 -19 96.5t-108 94.5q-56 22 -128 22q-43 0 -92 -8l-4 -1q-79 -15 -144 -17q-55 1 -86 30q-19 17 -19 37q0 13 13 36.5t109.5 41.5t195.5 18
q44 0 138.5 -7.5t215 -59t186.5 -144.5q50 -72 50 -171q0 -29 -4 -60q-9 -80 -9 -161q0 -15 1 -71t48.5 -124t174.5 -72q27 0 46.5 -19t19.5 -46q0 -28 -19.5 -47t-46.5 -19q-175 0 -304 50q-124 48 -195 121q-86 -55 -191 -94q198 -79 257 -178q35 -72 35 -141
q0 -73 -56.5 -174.5t-225 -200t-378.5 -142.5q-120 -25 -238 -25z" />
    <glyph glyph-name="uni549" unicode="&#xfea8;&#xfbfd;&#x621;&#x621;&#x621;" horiz-adv-x="1939" 
d="M685 -785q-87 0 -230 23.5t-281.5 152.5t-164.5 374q-1 21 -1 43q0 132 55.5 291t149.5 301.5t188 206.5q72 -5 113.5 -20.5t91.5 -45.5l18 -10q-11 -51 -44.5 -103t-78.5 -111q-75 -91 -142 -212t-82 -288q-2 -35 -2 -67q0 -205 85.5 -309t234.5 -104q145 0 299.5 69.5
t270.5 173.5q150 134 150 253q0 37 -19.5 76.5t-68 66t-100.5 26.5h-169q-37 -3 -73 -3h-92q-28 0 -47.5 19t-19.5 47q0 27 19.5 46t47.5 19q118 1 248 44.5t236 124.5t152 193q33 90 33 158q0 37 -19 96.5t-108 94.5q-56 22 -128 22q-43 0 -92 -8l-4 -1q-79 -15 -144 -17
q-55 1 -86 30q-19 17 -19 37q0 13 13 36.5t109.5 41.5t195.5 18q44 0 138.5 -7.5t215 -59t186.5 -144.5q50 -72 50 -171q0 -29 -4 -60q-9 -80 -9 -161q0 -15 1 -71t48.5 -124t174.5 -72q27 0 46.5 -19t19.5 -46q0 -28 -19.5 -47t-46.5 -19q-175 0 -304 50q-124 48 -195 121
q-86 -55 -191 -94q198 -79 257 -178q35 -72 35 -141q0 -73 -56.5 -174.5t-225 -200t-378.5 -142.5q-120 -25 -238 -25zM1118 1090q-108 0 -158 107q-19 42 -19 87q0 28 7 58q24 75 93 110q44 23 89 23q27 0 77.5 -14.5t89.5 -107.5q15 -39 15 -78q0 -29 -12.5 -76.5
t-82.5 -84.5q-53 -24 -99 -24z" />
    <glyph glyph-name="uni550" unicode="&#xfea4;&#xfbfd;&#x621;&#x621;&#x621;&#x621;" horiz-adv-x="2045" 
d="M760 -939q-39 0 -78 3q-241 22 -416.5 148.5t-236.5 343.5q-23 81 -23 173q0 154 64 337q82 218 220 398.5t298 313.5q53 50 135 50q80 0 225 -74q-40 -47 -113 -118q-101 -97 -222.5 -236.5t-216.5 -318.5q-64 -128 -83 -279q-7 -53 -7 -105q0 -95 29 -209t128 -204.5
t271 -97.5h9q113 0 231 47.5t214 130.5t141 185q25 57 25 115q0 45 -15 91q-67 168 -274 212q-69 14 -138 18q-97 11 -97 77q0 29 29 53q13 11 29 14q19 5 46 5l30 -1q114 12 230.5 58t209 122.5t134.5 178.5q33 90 33 158q0 37 -19 96.5t-108 94.5q-56 22 -128 22
q-43 0 -92 -8l-3 -1q-80 -15 -145 -17q-55 1 -85 30q-19 17 -19 37q0 13 13 36.5t108 42.5q97 17 197 17q44 0 138.5 -7.5t214.5 -59t186 -144.5q50 -72 50 -171q0 -29 -4 -60q-9 -80 -9 -161q0 -15 1 -71t49 -124t174 -72q27 0 46.5 -19t19.5 -46q0 -28 -19.5 -47
t-46.5 -19q-175 0 -304 50q-124 48 -194 121q-103 -66 -231 -108q-41 -13 -80 -24q58 -28 110 -64q217 -150 217 -341q0 -5 -2 -50.5t-37 -119.5q-63 -132 -207 -226.5t-325 -140.5q-140 -35 -277 -35z" />
    <glyph glyph-name="uni551" unicode="&#xfb7d;&#xfbfd;&#x621;&#x621;&#x621;&#x621;" horiz-adv-x="2036" 
d="M760 -939q-39 0 -78 3q-241 22 -416.5 148.5t-236.5 343.5q-23 81 -23 173q0 154 64 337q82 218 220 398.5t298 313.5q53 50 135 50q80 0 225 -74q-40 -47 -113 -118q-101 -97 -222.5 -236.5t-216.5 -318.5q-64 -128 -83 -279q-7 -53 -7 -105q0 -95 29 -209t128 -204.5
t271 -97.5h9q113 0 231 47.5t214 130.5t141 185q25 57 25 115q0 45 -15 91q-67 168 -274 212q-69 14 -138 18q-97 11 -97 77q0 29 29 53q13 11 29 14q19 5 46 5l30 -1q114 12 230.5 58t209 122.5t134.5 178.5q33 90 33 158q0 37 -19 96.5t-108 94.5q-56 22 -128 22
q-43 0 -92 -8l-3 -1q-80 -15 -145 -17q-55 1 -85 30q-19 17 -19 37q0 13 13 36.5t108 42.5q97 17 197 17q44 0 138.5 -7.5t214.5 -59t186 -144.5q50 -72 50 -171q0 -29 -4 -60q-9 -80 -9 -161q0 -15 1 -71t49 -124t174 -72q27 0 46.5 -19t19.5 -46q0 -28 -19.5 -47
t-46.5 -19q-175 0 -304 50q-124 48 -194 121q-103 -66 -231 -108q-41 -13 -80 -24q58 -28 110 -64q217 -150 217 -341q0 -5 -2 -50.5t-37 -119.5q-63 -132 -207 -226.5t-325 -140.5q-140 -35 -277 -35zM1803 -1553q-69 0 -119 42.5t-60 120.5q-2 17 -2 33q0 61 33.5 124
t118.5 87q33 7 62 7q62 0 114.5 -41t66.5 -122q4 -21 4 -42q0 -57 -33.5 -119t-130.5 -85q-29 -5 -54 -5zM1900 -1047q-71 0 -120 43q-58 53 -58 152q0 59 31.5 121t108.5 88q34 9 63 9q57 0 111 -40.5t74 -122.5q7 -27 7 -54q0 -160 -174 -193q-23 -3 -43 -3zM1453 -1176
q-65 0 -115 41t-62 119q-3 21 -3 41q0 56 29 117.5t109 86.5q38 9 70 9q59 0 111.5 -39t67.5 -120q5 -25 5 -49q0 -53 -30.5 -114.5t-122.5 -85.5q-32 -6 -59 -6z" />
    <glyph glyph-name="uni552" unicode="&#xfea0;&#xfbfd;&#x621;&#x621;&#x621;&#x621;" horiz-adv-x="2056" 
d="M1826 -458q-108 0 -158 107q-19 42 -19 87q0 28 7 58q24 75 93 110q44 23 89 23q27 0 77.5 -14.5t89.5 -107.5q15 -39 15 -78q0 -29 -12.5 -76.5t-82.5 -84.5q-53 -24 -99 -24zM760 -939q-39 0 -78 3q-241 22 -416.5 148.5t-236.5 343.5q-23 81 -23 173q0 154 64 337
q82 218 220 398.5t298 313.5q53 50 135 50q80 0 225 -74q-40 -47 -113 -118q-101 -97 -222.5 -236.5t-216.5 -318.5q-64 -128 -83 -279q-7 -53 -7 -105q0 -95 29 -209t128 -204.5t271 -97.5h9q113 0 231 47.5t214 130.5t141 185q25 57 25 115q0 45 -15 91q-67 168 -274 212
q-69 14 -138 18q-97 11 -97 77q0 29 29 53q13 11 29 14q19 5 46 5l30 -1q114 12 230.5 58t209 122.5t134.5 178.5q33 90 33 158q0 37 -19 96.5t-108 94.5q-56 22 -128 22q-43 0 -92 -8l-3 -1q-80 -15 -145 -17q-55 1 -85 30q-19 17 -19 37q0 13 13 36.5t108 42.5
q97 17 197 17q44 0 138.5 -7.5t214.5 -59t186 -144.5q50 -72 50 -171q0 -29 -4 -60q-9 -80 -9 -161q0 -15 1 -71t49 -124t174 -72q27 0 46.5 -19t19.5 -46q0 -28 -19.5 -47t-46.5 -19q-175 0 -304 50q-124 48 -194 121q-103 -66 -231 -108q-41 -13 -80 -24q58 -28 110 -64
q217 -150 217 -341q0 -5 -2 -50.5t-37 -119.5q-63 -132 -207 -226.5t-325 -140.5q-140 -35 -277 -35z" />
    <glyph glyph-name="uni553" unicode="&#xfea8;&#xfbfd;&#x621;&#x621;&#x621;&#x621;" horiz-adv-x="2045" 
d="M760 -939q-39 0 -78 3q-241 22 -416.5 148.5t-236.5 343.5q-23 81 -23 173q0 154 64 337q82 218 220 398.5t298 313.5q53 50 135 50q80 0 225 -74q-40 -47 -113 -118q-101 -97 -222.5 -236.5t-216.5 -318.5q-64 -128 -83 -279q-7 -53 -7 -105q0 -95 29 -209t128 -204.5
t271 -97.5h9q113 0 231 47.5t214 130.5t141 185q25 57 25 115q0 45 -15 91q-67 168 -274 212q-69 14 -138 18q-97 11 -97 77q0 29 29 53q13 11 29 14q19 5 46 5l30 -1q114 12 230.5 58t209 122.5t134.5 178.5q33 90 33 158q0 37 -19 96.5t-108 94.5q-56 22 -128 22
q-43 0 -92 -8l-3 -1q-80 -15 -145 -17q-55 1 -85 30q-19 17 -19 37q0 13 13 36.5t108 42.5q97 17 197 17q44 0 138.5 -7.5t214.5 -59t186 -144.5q50 -72 50 -171q0 -29 -4 -60q-9 -80 -9 -161q0 -15 1 -71t49 -124t174 -72q27 0 46.5 -19t19.5 -46q0 -28 -19.5 -47
t-46.5 -19q-175 0 -304 50q-124 48 -194 121q-103 -66 -231 -108q-41 -13 -80 -24q58 -28 110 -64q217 -150 217 -341q0 -5 -2 -50.5t-37 -119.5q-63 -132 -207 -226.5t-325 -140.5q-140 -35 -277 -35zM1167 1135q-108 0 -158 107q-19 42 -19 87q0 28 7 58q24 75 93 110
q44 23 89 23q27 0 77.5 -14.5t89.5 -107.5q15 -39 15 -78q0 -29 -12.5 -76.5t-82.5 -84.5q-53 -24 -99 -24z" />
    <glyph glyph-name="uni554" unicode="&#xfea4;&#xfbfd;&#x621;&#x621;&#x621;&#x621;&#x621;" horiz-adv-x="1899" 
d="M668 -712q-51 0 -104 5q-412 50 -518 362q-39 119 -39 248q0 22 4 110t42 226.5t82 234.5q48 104 134 116q15 2 32 2q77 0 187 -46q-17 -50 -46 -119q-45 -102 -89.5 -237.5t-54.5 -296.5v-29q0 -215 86 -321q92 -112 233 -112q120 0 231 73.5t154 208.5q12 44 12 79
q0 47 -29 92t-102 72.5t-152 38.5q-41 3 -62 29q-15 17 -15 41q0 27 19.5 46t47.5 19q118 1 248 44.5t236 124.5t152 193q33 90 33 158q0 37 -19 96.5t-108 94.5q-56 22 -128 22q-43 0 -92 -8l-4 -1q-79 -15 -144 -17q-55 1 -86 30q-19 17 -19 37q0 13 13 36.5t109.5 41.5
t195.5 18q44 0 138.5 -7.5t215 -59t186.5 -144.5q50 -72 50 -171q0 -29 -4 -60q-10 -75 -10 -152q0 -20 1.5 -78t49 -126t174.5 -72q27 0 46.5 -19t19.5 -46q0 -28 -19.5 -47t-46.5 -19q-175 0 -304 50q-124 48 -195 121q-102 -66 -230 -108q-54 -17 -103 -30
q128 -49 206 -161q41 -65 41 -134q0 -35 -20.5 -106.5t-125 -164t-262.5 -142.5q-115 -36 -248 -36z" />
    <glyph glyph-name="uni555" unicode="&#xfb7d;&#xfbfd;&#x621;&#x621;&#x621;&#x621;&#x621;" horiz-adv-x="1899" 
d="M668 -712q-51 0 -104 5q-412 50 -518 362q-39 119 -39 248q0 22 4 110t42 226.5t82 234.5q48 104 134 116q15 2 32 2q77 0 187 -46q-17 -50 -46 -119q-45 -102 -89.5 -237.5t-54.5 -296.5v-29q0 -215 86 -321q92 -112 233 -112q120 0 231 73.5t154 208.5q12 44 12 79
q0 47 -29 92t-102 72.5t-152 38.5q-41 3 -62 29q-15 17 -15 41q0 27 19.5 46t47.5 19q118 1 248 44.5t236 124.5t152 193q33 90 33 158q0 37 -19 96.5t-108 94.5q-56 22 -128 22q-43 0 -92 -8l-4 -1q-79 -15 -144 -17q-55 1 -86 30q-19 17 -19 37q0 13 13 36.5t109.5 41.5
t195.5 18q44 0 138.5 -7.5t215 -59t186.5 -144.5q50 -72 50 -171q0 -29 -4 -60q-10 -75 -10 -152q0 -20 1.5 -78t49 -126t174.5 -72q27 0 46.5 -19t19.5 -46q0 -28 -19.5 -47t-46.5 -19q-175 0 -304 50q-124 48 -195 121q-102 -66 -230 -108q-54 -17 -103 -30
q128 -49 206 -161q41 -65 41 -134q0 -35 -20.5 -106.5t-125 -164t-262.5 -142.5q-115 -36 -248 -36zM1539 -1424q-69 0 -119 42.5t-60 120.5q-2 17 -2 33q0 61 33.5 124t118.5 87q33 7 62 7q62 0 114.5 -41t66.5 -122q4 -21 4 -42q0 -57 -33.5 -119t-130.5 -85
q-29 -5 -54 -5zM1636 -918q-71 0 -120 43q-58 53 -58 152q0 59 31.5 121t108.5 88q34 9 63 9q57 0 111 -40.5t74 -122.5q7 -27 7 -54q0 -160 -174 -193q-23 -3 -43 -3zM1189 -1047q-65 0 -115 41t-62 119q-3 21 -3 41q0 56 29 117.5t109 86.5q38 9 70 9q59 0 111.5 -39
t67.5 -120q5 -25 5 -49q0 -53 -30.5 -114.5t-122.5 -85.5q-32 -6 -59 -6z" />
    <glyph glyph-name="uni556" unicode="&#xfea0;&#xfbfd;&#x621;&#x621;&#x621;&#x621;&#x621;" horiz-adv-x="1899" 
d="M1571 -487q-108 0 -158 107q-19 42 -19 87q0 28 7 58q24 75 93 110q44 23 89 23q27 0 77.5 -14.5t89.5 -107.5q15 -39 15 -78q0 -29 -12.5 -76.5t-82.5 -84.5q-53 -24 -99 -24zM668 -712q-51 0 -104 5q-412 50 -518 362q-39 119 -39 248q0 22 4 110t42 226.5t82 234.5
q48 104 134 116q15 2 32 2q77 0 187 -46q-17 -50 -46 -119q-45 -102 -89.5 -237.5t-54.5 -296.5v-29q0 -215 86 -321q92 -112 233 -112q120 0 231 73.5t154 208.5q12 44 12 79q0 47 -29 92t-102 72.5t-152 38.5q-41 3 -62 29q-15 17 -15 41q0 27 19.5 46t47.5 19
q118 1 248 44.5t236 124.5t152 193q33 90 33 158q0 37 -19 96.5t-108 94.5q-56 22 -128 22q-43 0 -92 -8l-4 -1q-79 -15 -144 -17q-55 1 -86 30q-19 17 -19 37q0 13 13 36.5t109.5 41.5t195.5 18q44 0 138.5 -7.5t215 -59t186.5 -144.5q50 -72 50 -171q0 -29 -4 -60
q-10 -75 -10 -152q0 -20 1.5 -78t49 -126t174.5 -72q27 0 46.5 -19t19.5 -46q0 -28 -19.5 -47t-46.5 -19q-175 0 -304 50q-124 48 -195 121q-102 -66 -230 -108q-54 -17 -103 -30q128 -49 206 -161q41 -65 41 -134q0 -35 -20.5 -106.5t-125 -164t-262.5 -142.5
q-115 -36 -248 -36z" />
    <glyph glyph-name="uni557" unicode="&#xfea8;&#xfbfd;&#x621;&#x621;&#x621;&#x621;&#x621;" horiz-adv-x="1899" 
d="M668 -712q-51 0 -104 5q-412 50 -518 362q-39 119 -39 248q0 22 4 110t42 226.5t82 234.5q48 104 134 116q15 2 32 2q77 0 187 -46q-17 -50 -46 -119q-45 -102 -89.5 -237.5t-54.5 -296.5v-29q0 -215 86 -321q92 -112 233 -112q120 0 231 73.5t154 208.5q12 44 12 79
q0 47 -29 92t-102 72.5t-152 38.5q-41 3 -62 29q-15 17 -15 41q0 27 19.5 46t47.5 19q118 1 248 44.5t236 124.5t152 193q33 90 33 158q0 37 -19 96.5t-108 94.5q-56 22 -128 22q-43 0 -92 -8l-4 -1q-79 -15 -144 -17q-55 1 -86 30q-19 17 -19 37q0 13 13 36.5t109.5 41.5
t195.5 18q44 0 138.5 -7.5t215 -59t186.5 -144.5q50 -72 50 -171q0 -29 -4 -60q-10 -75 -10 -152q0 -20 1.5 -78t49 -126t174.5 -72q27 0 46.5 -19t19.5 -46q0 -28 -19.5 -47t-46.5 -19q-175 0 -304 50q-124 48 -195 121q-102 -66 -230 -108q-54 -17 -103 -30
q128 -49 206 -161q41 -65 41 -134q0 -35 -20.5 -106.5t-125 -164t-262.5 -142.5q-115 -36 -248 -36zM1167 1135q-108 0 -158 107q-19 42 -19 87q0 28 7 58q24 75 93 110q44 23 89 23q27 0 77.5 -14.5t89.5 -107.5q15 -39 15 -78q0 -29 -12.5 -76.5t-82.5 -84.5
q-53 -24 -99 -24z" />
    <glyph glyph-name="uni558" unicode="&#xfea4;&#xfbfd;&#x621;&#x621;&#x621;&#x621;&#x621;&#x621;" horiz-adv-x="1899" 
d="M692 -775q-373 0 -569 298q-115 174 -115 409q0 15 3.5 150.5t178.5 417.5q46 64 114 64q12 0 60 -7.5t139 -50.5l-39 -85q-52 -104 -105 -237.5t-74 -276.5q-6 -50 -6 -98q0 -82 22.5 -180t103 -178t223.5 -94l26 -1q92 0 189 48t170 134q92 108 92 223
q0 80 -49.5 137.5t-139.5 81.5q-68 17 -133 17q-20 0 -42 2l-23 1l-2 3q-44 19 -44 62q0 27 19.5 46t47.5 19q118 1 248 44.5t236 124.5t152 193q33 90 33 158q0 37 -19 96.5t-108 94.5q-56 22 -128 22q-43 0 -92 -8l-4 -1q-79 -15 -144 -17q-55 1 -86 30q-19 17 -19 37
q0 13 13 36.5t109.5 41.5t195.5 18q44 0 138.5 -7.5t215 -59t186.5 -144.5q50 -72 50 -171q0 -29 -4 -60q-9 -80 -9 -161q0 -15 1 -71t48.5 -124t174.5 -72q27 0 46.5 -19t19.5 -46q0 -28 -19.5 -47t-46.5 -19q-175 0 -304 50q-124 48 -195 121q-121 -78 -288 -126
q107 -47 186.5 -123t93.5 -174l1 -21q0 -92 -67 -185.5t-177 -168.5q-217 -147 -485 -147z" />
    <glyph glyph-name="uni559" unicode="&#xfb7d;&#xfbfd;&#x621;&#x621;&#x621;&#x621;&#x621;&#x621;" horiz-adv-x="1899" 
d="M692 -775q-373 0 -569 298q-115 174 -115 409q0 15 3.5 150.5t178.5 417.5q46 64 114 64q12 0 60 -7.5t139 -50.5l-39 -85q-52 -104 -105 -237.5t-74 -276.5q-6 -50 -6 -98q0 -82 22.5 -180t103 -178t223.5 -94l26 -1q92 0 189 48t170 134q92 108 92 223
q0 80 -49.5 137.5t-139.5 81.5q-68 17 -133 17q-20 0 -42 2l-23 1l-2 3q-44 19 -44 62q0 27 19.5 46t47.5 19q118 1 248 44.5t236 124.5t152 193q33 90 33 158q0 37 -19 96.5t-108 94.5q-56 22 -128 22q-43 0 -92 -8l-4 -1q-79 -15 -144 -17q-55 1 -86 30q-19 17 -19 37
q0 13 13 36.5t109.5 41.5t195.5 18q44 0 138.5 -7.5t215 -59t186.5 -144.5q50 -72 50 -171q0 -29 -4 -60q-9 -80 -9 -161q0 -15 1 -71t48.5 -124t174.5 -72q27 0 46.5 -19t19.5 -46q0 -28 -19.5 -47t-46.5 -19q-175 0 -304 50q-124 48 -195 121q-121 -78 -288 -126
q107 -47 186.5 -123t93.5 -174l1 -21q0 -92 -67 -185.5t-177 -168.5q-217 -147 -485 -147zM1649 -1418q-46 0 -96 31t-72 107q-9 33 -9 66q0 43 21.5 102t101.5 95q49 18 90 18q44 0 96 -30t77 -108q12 -36 12 -73q0 -40 -21.5 -98.5t-113.5 -94.5q-47 -15 -86 -15z
M1674 -904q-49 0 -97.5 32.5t-67.5 107.5q-9 33 -9 66q0 40 19.5 97.5t91.5 93.5q47 20 89 20q41 0 94.5 -29.5t84.5 -107.5q16 -41 16 -82q0 -36 -20.5 -93t-125.5 -94q-41 -11 -75 -11zM1252 -1095q-45 0 -95 30t-73 106q-11 37 -11 74q0 39 17.5 95.5t92.5 91.5
q53 21 97 21q41 0 92.5 -28t78.5 -105q14 -40 14 -80q0 -37 -19 -94t-106 -94q-48 -17 -88 -17z" />
    <glyph glyph-name="uni560" unicode="&#xfea0;&#xfbfd;&#x621;&#x621;&#x621;&#x621;&#x621;&#x621;" horiz-adv-x="1899" 
d="M1646 -510q-108 0 -158 107q-19 42 -19 87q0 28 7 58q24 75 93 110q44 23 89 23q27 0 77.5 -14.5t89.5 -107.5q15 -39 15 -78q0 -29 -12.5 -76.5t-82.5 -84.5q-53 -24 -99 -24zM692 -775q-373 0 -569 298q-115 174 -115 409q0 15 3.5 150.5t178.5 417.5q46 64 114 64
q12 0 60 -7.5t139 -50.5l-39 -85q-52 -104 -105 -237.5t-74 -276.5q-6 -50 -6 -98q0 -82 22.5 -180t103 -178t223.5 -94l26 -1q92 0 189 48t170 134q92 108 92 223q0 80 -49.5 137.5t-139.5 81.5q-68 17 -133 17q-20 0 -42 2l-23 1l-2 3q-44 19 -44 62q0 27 19.5 46t47.5 19
q118 1 248 44.5t236 124.5t152 193q33 90 33 158q0 37 -19 96.5t-108 94.5q-56 22 -128 22q-43 0 -92 -8l-4 -1q-79 -15 -144 -17q-55 1 -86 30q-19 17 -19 37q0 13 13 36.5t109.5 41.5t195.5 18q44 0 138.5 -7.5t215 -59t186.5 -144.5q50 -72 50 -171q0 -29 -4 -60
q-9 -80 -9 -161q0 -15 1 -71t48.5 -124t174.5 -72q27 0 46.5 -19t19.5 -46q0 -28 -19.5 -47t-46.5 -19q-175 0 -304 50q-124 48 -195 121q-121 -78 -288 -126q107 -47 186.5 -123t93.5 -174l1 -21q0 -92 -67 -185.5t-177 -168.5q-217 -147 -485 -147z" />
    <glyph glyph-name="uni561" unicode="&#xfea8;&#xfbfd;&#x621;&#x621;&#x621;&#x621;&#x621;&#x621;" horiz-adv-x="1899" 
d="M692 -775q-373 0 -569 298q-115 174 -115 409q0 15 3.5 150.5t178.5 417.5q46 64 114 64q12 0 60 -7.5t139 -50.5l-39 -85q-52 -104 -105 -237.5t-74 -276.5q-6 -50 -6 -98q0 -82 22.5 -180t103 -178t223.5 -94l26 -1q92 0 189 48t170 134q92 108 92 223
q0 80 -49.5 137.5t-139.5 81.5q-68 17 -133 17q-20 0 -42 2l-23 1l-2 3q-44 19 -44 62q0 27 19.5 46t47.5 19q118 1 248 44.5t236 124.5t152 193q33 90 33 158q0 37 -19 96.5t-108 94.5q-56 22 -128 22q-43 0 -92 -8l-4 -1q-79 -15 -144 -17q-55 1 -86 30q-19 17 -19 37
q0 13 13 36.5t109.5 41.5t195.5 18q44 0 138.5 -7.5t215 -59t186.5 -144.5q50 -72 50 -171q0 -29 -4 -60q-9 -80 -9 -161q0 -15 1 -71t48.5 -124t174.5 -72q27 0 46.5 -19t19.5 -46q0 -28 -19.5 -47t-46.5 -19q-175 0 -304 50q-124 48 -195 121q-121 -78 -288 -126
q107 -47 186.5 -123t93.5 -174l1 -21q0 -92 -67 -185.5t-177 -168.5q-217 -147 -485 -147zM1167 1135q-108 0 -158 107q-19 42 -19 87q0 28 7 58q24 75 93 110q44 23 89 23q27 0 77.5 -14.5t89.5 -107.5q15 -39 15 -78q0 -29 -12.5 -76.5t-82.5 -84.5q-53 -24 -99 -24z" />
    <glyph glyph-name="uni562" unicode="&#xfea4;&#xfbfd;&#x621;&#x621;&#x621;&#x621;&#x621;&#x621;&#x621;" horiz-adv-x="1374" 
d="M727 -695q-102 0 -248 19t-283 115q-81 58 -138 162q-51 93 -51 205l1 28q16 164 119 291q120 149 318 193q53 8 100 8q37 0 70 -5q39 -4 75 -4q35 0 69 13q76 36 105 120q15 46 15 93q0 39 -16.5 102t-95.5 106q-64 32 -151 32q-44 0 -93 -8q-1 -1 -3 -1
q-80 -15 -145 -17q-54 1 -85 30q-19 17 -19 37q0 13 13 36.5t109 43.5q93 16 188 16q54 0 158 -9.5t226 -67.5q107 -54 159 -137q55 -91 55 -196q0 -30 -3 -56t-3 -53q0 -42 8.5 -101.5t58 -112.5t159.5 -57q27 0 46.5 -19t19.5 -46q0 -28 -19.5 -47t-46.5 -19
q-150 0 -262 35.5t-186 91.5q-88 -53 -180 -64q-66 -7 -132 -7h-32q-67 0 -139 -8q-127 -19 -175 -94q-31 -49 -31 -103q0 -30 17.5 -90.5t113.5 -124.5q90 -54 239 -61q33 -2 68 -2q118 0 266 22t295 62t235 79q173 78 367 193q16 -84 16 -143q0 -25 -6.5 -69.5
t-54.5 -88.5t-138 -94q-139 -71 -335 -129.5t-409 -85.5q-107 -13 -209 -13z" />
    <glyph glyph-name="uni563" unicode="&#xfb7d;&#xfbfd;&#x621;&#x621;&#x621;&#x621;&#x621;&#x621;&#x621;" horiz-adv-x="1377" 
d="M727 -695q-102 0 -248 19t-283 115q-81 58 -138 162q-51 93 -51 205l1 28q16 164 119 291q120 149 318 193q53 8 100 8q37 0 70 -5q39 -4 75 -4q35 0 69 13q76 36 105 120q15 46 15 93q0 39 -16.5 102t-95.5 106q-64 32 -151 32q-44 0 -93 -8q-1 -1 -3 -1
q-80 -15 -145 -17q-54 1 -85 30q-19 17 -19 37q0 13 13 36.5t109 43.5q93 16 188 16q54 0 158 -9.5t226 -67.5q107 -54 159 -137q55 -91 55 -196q0 -30 -3 -56t-3 -53q0 -42 8.5 -101.5t58 -112.5t159.5 -57q27 0 46.5 -19t19.5 -46q0 -28 -19.5 -47t-46.5 -19
q-150 0 -262 35.5t-186 91.5q-88 -53 -180 -64q-66 -7 -132 -7h-32q-67 0 -139 -8q-127 -19 -175 -94q-31 -49 -31 -103q0 -30 17.5 -90.5t113.5 -124.5q90 -54 239 -61q33 -2 68 -2q118 0 266 22t295 62t235 79q173 78 367 193q16 -84 16 -143q0 -25 -6.5 -69.5
t-54.5 -88.5t-138 -94q-139 -71 -335 -129.5t-409 -85.5q-107 -13 -209 -13zM795 -1189q-28 0 -80 15t-96 114q-14 37 -14 72q0 43 27.5 98t97.5 93q46 25 94 25q24 0 73.5 -12t96.5 -110q20 -48 20 -91q0 -39 -26.5 -93t-99.5 -89q-46 -22 -93 -22zM445 -1555
q-34 0 -90 17.5t-93 111.5q-9 31 -9 60q0 44 28.5 99.5t95.5 93.5q48 26 98 26q20 0 66 -9.5t95 -100.5q26 -57 26 -105q0 -38 -26 -91t-104 -85q-43 -17 -87 -17zM283 -1120q-32 0 -85 16.5t-95 118.5q-11 32 -11 63q0 44 30 98.5t101 90.5q46 24 94 24q25 0 74.5 -13.5
t94.5 -112.5q16 -42 16 -79q0 -43 -28.5 -97.5t-103.5 -88.5q-43 -20 -87 -20z" />
    <glyph glyph-name="uni564" unicode="&#xfea0;&#xfbfd;&#x621;&#x621;&#x621;&#x621;&#x621;&#x621;&#x621;" horiz-adv-x="1377" 
d="M634 -384q-108 0 -158 107q-19 42 -19 87q0 28 7 58q24 75 93 110q44 23 89 23q27 0 77.5 -14.5t89.5 -107.5q15 -39 15 -78q0 -29 -12.5 -76.5t-82.5 -84.5q-53 -24 -99 -24zM727 -695q-102 0 -248 19t-283 115q-81 58 -138 162q-51 93 -51 205l1 28q16 164 119 291
q120 149 318 193q53 8 100 8q37 0 70 -5q39 -4 75 -4q35 0 69 13q76 36 105 120q15 46 15 93q0 39 -16.5 102t-95.5 106q-64 32 -151 32q-44 0 -93 -8q-1 -1 -3 -1q-80 -15 -145 -17q-54 1 -85 30q-19 17 -19 37q0 13 13 36.5t109 43.5q93 16 188 16q54 0 158 -9.5
t226 -67.5q107 -54 159 -137q55 -91 55 -196q0 -30 -3 -56t-3 -53q0 -42 8.5 -101.5t58 -112.5t159.5 -57q27 0 46.5 -19t19.5 -46q0 -28 -19.5 -47t-46.5 -19q-150 0 -262 35.5t-186 91.5q-88 -53 -180 -64q-66 -7 -132 -7h-32q-67 0 -139 -8q-127 -19 -175 -94
q-31 -49 -31 -103q0 -30 17.5 -90.5t113.5 -124.5q90 -54 239 -61q33 -2 68 -2q118 0 266 22t295 62t235 79q173 78 367 193q16 -84 16 -143q0 -25 -6.5 -69.5t-54.5 -88.5t-138 -94q-139 -71 -335 -129.5t-409 -85.5q-107 -13 -209 -13z" />
    <glyph glyph-name="uni565" unicode="&#xfea8;&#xfbfd;&#x621;&#x621;&#x621;&#x621;&#x621;&#x621;&#x621;" horiz-adv-x="1374" 
d="M727 -695q-102 0 -248 19t-283 115q-81 58 -138 162q-51 93 -51 205l1 28q16 164 119 291q120 149 318 193q53 8 100 8q37 0 70 -5q39 -4 75 -4q35 0 69 13q76 36 105 120q15 46 15 93q0 39 -16.5 102t-95.5 106q-64 32 -151 32q-44 0 -93 -8q-1 -1 -3 -1
q-80 -15 -145 -17q-54 1 -85 30q-19 17 -19 37q0 13 13 36.5t109 43.5q93 16 188 16q54 0 158 -9.5t226 -67.5q107 -54 159 -137q55 -91 55 -196q0 -30 -3 -56t-3 -53q0 -42 8.5 -101.5t58 -112.5t159.5 -57q27 0 46.5 -19t19.5 -46q0 -28 -19.5 -47t-46.5 -19
q-150 0 -262 35.5t-186 91.5q-88 -53 -180 -64q-66 -7 -132 -7h-32q-67 0 -139 -8q-127 -19 -175 -94q-31 -49 -31 -103q0 -30 17.5 -90.5t113.5 -124.5q90 -54 239 -61q33 -2 68 -2q118 0 266 22t295 62t235 79q173 78 367 193q16 -84 16 -143q0 -25 -6.5 -69.5
t-54.5 -88.5t-138 -94q-139 -71 -335 -129.5t-409 -85.5q-107 -13 -209 -13zM539 1035q-108 0 -158 107q-19 42 -19 87q0 28 7 58q24 75 93 110q44 23 89 23q27 0 77.5 -14.5t89.5 -107.5q15 -39 15 -78q0 -29 -12.5 -76.5t-82.5 -84.5q-53 -24 -99 -24z" />
    <glyph glyph-name="uni562.1" unicode="&#xfea3;&#xfbfd;&#x621;&#x621;" horiz-adv-x="2099" 
d="M993 -646h-29q-215 0 -457 76q-182 63 -348 230q-102 110 -134 245q-19 79 -19 159q0 59 16.5 159.5t80.5 229.5q89 185 246 306.5t365 121.5q33 0 90 -16q50 -15 66 -36q-178 -97 -323.5 -252.5t-205.5 -348.5q-25 -81 -25 -165q0 -116 47 -236q131 -306 535 -353
q57 -5 110 -5q174 0 318 54q283 107 283 294v7q-9 104 -198 146q-131 29 -274 29h-15l-7 1h-45q-28 0 -47.5 19t-19.5 46q0 28 19.5 47t47.5 19q118 1 248 44.5t236 124.5t152 193q33 89 33 157q0 38 -19.5 97.5t-107.5 94.5q-56 22 -128 22q-43 0 -92 -8l-4 -1
q-79 -15 -144 -17q-55 1 -86 30q-19 17 -19 37q0 13 13 36.5t109 41.5t194 18q60 0 169.5 -12t233.5 -77.5t171 -184.5q19 -47 19 -104q0 -84 -42 -188q-100 -218 -411 -348q219 -53 310 -190q32 -55 32 -111q0 -24 -13.5 -76.5t-61.5 -108.5q-90 -101 -242 -155
q-259 -92 -627 -92z" />
    <glyph glyph-name="uni563.1" unicode="&#xfb7c;&#xfbfd;&#x621;&#x621;" horiz-adv-x="2099" 
d="M993 -646h-29q-215 0 -457 76q-182 63 -348 230q-102 110 -134 245q-19 79 -19 159q0 59 16.5 159.5t80.5 229.5q89 185 246 306.5t365 121.5q33 0 90 -16q50 -15 66 -36q-178 -97 -323.5 -252.5t-205.5 -348.5q-25 -81 -25 -165q0 -116 47 -236q131 -306 535 -353
q57 -5 110 -5q174 0 318 54q283 107 283 294v7q-9 104 -198 146q-131 29 -274 29h-15l-7 1h-45q-28 0 -47.5 19t-19.5 46q0 28 19.5 47t47.5 19q118 1 248 44.5t236 124.5t152 193q33 89 33 157q0 38 -19.5 97.5t-107.5 94.5q-56 22 -128 22q-43 0 -92 -8l-4 -1
q-79 -15 -144 -17q-55 1 -86 30q-19 17 -19 37q0 13 13 36.5t109 41.5t194 18q60 0 169.5 -12t233.5 -77.5t171 -184.5q19 -47 19 -104q0 -84 -42 -188q-100 -218 -411 -348q219 -53 310 -190q32 -55 32 -111q0 -24 -13.5 -76.5t-61.5 -108.5q-90 -101 -242 -155
q-259 -92 -627 -92zM1803 -1478q-69 0 -119 42.5t-60 120.5q-2 17 -2 33q0 61 33.5 124t118.5 87q33 7 62 7q62 0 114.5 -41t66.5 -122q4 -21 4 -42q0 -57 -33.5 -119t-130.5 -85q-29 -5 -54 -5zM1900 -972q-71 0 -120 43q-58 53 -58 152q0 59 31.5 121t108.5 88q34 9 63 9
q57 0 111 -40.5t74 -122.5q7 -27 7 -54q0 -160 -174 -193q-23 -3 -43 -3zM1453 -1101q-65 0 -115 41t-62 119q-3 21 -3 41q0 56 29 117.5t109 86.5q38 9 70 9q59 0 111.5 -39t67.5 -120q5 -25 5 -49q0 -53 -30.5 -114.5t-122.5 -85.5q-32 -6 -59 -6z" />
    <glyph glyph-name="uni564.1" unicode="&#xfe9f;&#xfbfd;&#x621;&#x621;" horiz-adv-x="2099" 
d="M1880 -908q-108 0 -158 107q-19 42 -19 87q0 28 7 58q24 75 93 110q44 23 89 23q27 0 77.5 -14.5t89.5 -107.5q15 -39 15 -78q0 -29 -12.5 -76.5t-82.5 -84.5q-53 -24 -99 -24zM993 -646h-29q-215 0 -457 76q-182 63 -348 230q-102 110 -134 245q-19 79 -19 159
q0 59 16.5 159.5t80.5 229.5q89 185 246 306.5t365 121.5q33 0 90 -16q50 -15 66 -36q-178 -97 -323.5 -252.5t-205.5 -348.5q-25 -81 -25 -165q0 -116 47 -236q131 -306 535 -353q57 -5 110 -5q174 0 318 54q283 107 283 294v7q-9 104 -198 146q-131 29 -274 29h-15l-7 1
h-45q-28 0 -47.5 19t-19.5 46q0 28 19.5 47t47.5 19q118 1 248 44.5t236 124.5t152 193q33 89 33 157q0 38 -19.5 97.5t-107.5 94.5q-56 22 -128 22q-43 0 -92 -8l-4 -1q-79 -15 -144 -17q-55 1 -86 30q-19 17 -19 37q0 13 13 36.5t109 41.5t194 18q60 0 169.5 -12
t233.5 -77.5t171 -184.5q19 -47 19 -104q0 -84 -42 -188q-100 -218 -411 -348q219 -53 310 -190q32 -55 32 -111q0 -24 -13.5 -76.5t-61.5 -108.5q-90 -101 -242 -155q-259 -92 -627 -92z" />
    <glyph glyph-name="uni565.1" unicode="&#xfea7;&#xfbfd;&#x621;&#x621;" horiz-adv-x="2099" 
d="M993 -646h-29q-215 0 -457 76q-182 63 -348 230q-102 110 -134 245q-19 79 -19 159q0 59 16.5 159.5t80.5 229.5q89 185 246 306.5t365 121.5q33 0 90 -16q50 -15 66 -36q-178 -97 -323.5 -252.5t-205.5 -348.5q-25 -81 -25 -165q0 -116 47 -236q131 -306 535 -353
q57 -5 110 -5q174 0 318 54q283 107 283 294v7q-9 104 -198 146q-131 29 -274 29h-15l-7 1h-45q-28 0 -47.5 19t-19.5 46q0 28 19.5 47t47.5 19q118 1 248 44.5t236 124.5t152 193q33 89 33 157q0 38 -19.5 97.5t-107.5 94.5q-56 22 -128 22q-43 0 -92 -8l-4 -1
q-79 -15 -144 -17q-55 1 -86 30q-19 17 -19 37q0 13 13 36.5t109 41.5t194 18q60 0 169.5 -12t233.5 -77.5t171 -184.5q19 -47 19 -104q0 -84 -42 -188q-100 -218 -411 -348q219 -53 310 -190q32 -55 32 -111q0 -24 -13.5 -76.5t-61.5 -108.5q-90 -101 -242 -155
q-259 -92 -627 -92zM1227 1095q-108 0 -158 107q-19 42 -19 87q0 28 7 58q24 75 93 110q44 23 89 23q27 0 77.5 -14.5t89.5 -107.5q15 -39 15 -78q0 -29 -12.5 -76.5t-82.5 -84.5q-53 -24 -99 -24z" />
    <glyph glyph-name="uni566" unicode="&#xfea3;&#xfbfd;&#x621;&#x621;&#x621;" horiz-adv-x="1899" 
d="M685 -787q-87 0 -230 23.5t-281.5 152.5t-164.5 374q-1 21 -1 43q0 132 55.5 291t149.5 301.5t188 206.5q72 -5 113.5 -20.5t91.5 -45.5l18 -10q-11 -51 -44.5 -103t-78.5 -111q-75 -91 -142 -212t-82 -288q-2 -35 -2 -67q0 -206 85.5 -309.5t234.5 -103.5
q145 0 299.5 69.5t270.5 173.5q150 134 150 253q0 37 -19.5 76.5t-68 66t-100.5 26.5h-273q-28 0 -47 19t-19 46q0 28 19 47t47 19q118 1 248.5 44.5t236 124.5t151.5 193q33 89 33 157q0 38 -19 97.5t-108 94.5q-56 22 -128 22q-43 0 -92 -8l-4 -1q-79 -15 -144 -17
q-55 1 -86 30q-19 17 -19 37q0 13 13.5 36.5t109 41.5t193.5 18q60 0 169.5 -12t233.5 -77.5t171 -184.5q19 -47 19 -104q0 -84 -42 -188q-50 -116 -175 -214.5t-299 -156.5q179 -76 232 -168q35 -72 35 -141q0 -73 -56.5 -174.5t-225 -200.5t-378.5 -142q-120 -25 -238 -25
z" />
    <glyph glyph-name="uni567" unicode="&#xfb7c;&#xfbfd;&#x621;&#x621;&#x621;" horiz-adv-x="1899" 
d="M685 -787q-87 0 -230 23.5t-281.5 152.5t-164.5 374q-1 21 -1 43q0 132 55.5 291t149.5 301.5t188 206.5q72 -5 113.5 -20.5t91.5 -45.5l18 -10q-11 -51 -44.5 -103t-78.5 -111q-75 -91 -142 -212t-82 -288q-2 -35 -2 -67q0 -206 85.5 -309.5t234.5 -103.5
q145 0 299.5 69.5t270.5 173.5q150 134 150 253q0 37 -19.5 76.5t-68 66t-100.5 26.5h-273q-28 0 -47 19t-19 46q0 28 19 47t47 19q118 1 248.5 44.5t236 124.5t151.5 193q33 89 33 157q0 38 -19 97.5t-108 94.5q-56 22 -128 22q-43 0 -92 -8l-4 -1q-79 -15 -144 -17
q-55 1 -86 30q-19 17 -19 37q0 13 13.5 36.5t109 41.5t193.5 18q60 0 169.5 -12t233.5 -77.5t171 -184.5q19 -47 19 -104q0 -84 -42 -188q-50 -116 -175 -214.5t-299 -156.5q179 -76 232 -168q35 -72 35 -141q0 -73 -56.5 -174.5t-225 -200.5t-378.5 -142q-120 -25 -238 -25
zM1640 -1504q-69 0 -119 42.5t-60 120.5q-2 17 -2 33q0 61 33.5 124t118.5 87q33 7 62 7q62 0 114.5 -41t66.5 -122q4 -21 4 -42q0 -57 -33.5 -119t-130.5 -85q-29 -5 -54 -5zM1737 -998q-71 0 -120 43q-58 53 -58 152q0 59 31.5 121t108.5 88q34 9 63 9q57 0 111 -40.5
t74 -122.5q7 -27 7 -54q0 -160 -174 -193q-23 -3 -43 -3zM1290 -1127q-65 0 -115 41t-62 119q-3 21 -3 41q0 56 29 117.5t109 86.5q38 9 70 9q59 0 111.5 -39t67.5 -120q5 -25 5 -49q0 -53 -30.5 -114.5t-122.5 -85.5q-32 -6 -59 -6z" />
    <glyph glyph-name="uni568" unicode="&#xfe9f;&#xfbfd;&#x621;&#x621;&#x621;" horiz-adv-x="1899" 
d="M1619 -908q-108 0 -158 107q-19 42 -19 87q0 28 7 58q24 75 93 110q44 23 89 23q27 0 77.5 -14.5t89.5 -107.5q15 -39 15 -78q0 -29 -12.5 -76.5t-82.5 -84.5q-53 -24 -99 -24zM685 -787q-87 0 -230 23.5t-281.5 152.5t-164.5 374q-1 21 -1 43q0 132 55.5 291
t149.5 301.5t188 206.5q72 -5 113.5 -20.5t91.5 -45.5l18 -10q-11 -51 -44.5 -103t-78.5 -111q-75 -91 -142 -212t-82 -288q-2 -35 -2 -67q0 -206 85.5 -309.5t234.5 -103.5q145 0 299.5 69.5t270.5 173.5q150 134 150 253q0 37 -19.5 76.5t-68 66t-100.5 26.5h-273
q-28 0 -47 19t-19 46q0 28 19 47t47 19q118 1 248.5 44.5t236 124.5t151.5 193q33 89 33 157q0 38 -19 97.5t-108 94.5q-56 22 -128 22q-43 0 -92 -8l-4 -1q-79 -15 -144 -17q-55 1 -86 30q-19 17 -19 37q0 13 13.5 36.5t109 41.5t193.5 18q60 0 169.5 -12t233.5 -77.5
t171 -184.5q19 -47 19 -104q0 -84 -42 -188q-50 -116 -175 -214.5t-299 -156.5q179 -76 232 -168q35 -72 35 -141q0 -73 -56.5 -174.5t-225 -200.5t-378.5 -142q-120 -25 -238 -25z" />
    <glyph glyph-name="uni569" unicode="&#xfea7;&#xfbfd;&#x621;&#x621;&#x621;" horiz-adv-x="1899" 
d="M685 -787q-87 0 -230 23.5t-281.5 152.5t-164.5 374q-1 21 -1 43q0 132 55.5 291t149.5 301.5t188 206.5q72 -5 113.5 -20.5t91.5 -45.5l18 -10q-11 -51 -44.5 -103t-78.5 -111q-75 -91 -142 -212t-82 -288q-2 -35 -2 -67q0 -206 85.5 -309.5t234.5 -103.5
q145 0 299.5 69.5t270.5 173.5q150 134 150 253q0 37 -19.5 76.5t-68 66t-100.5 26.5h-273q-28 0 -47 19t-19 46q0 28 19 47t47 19q118 1 248.5 44.5t236 124.5t151.5 193q33 89 33 157q0 38 -19 97.5t-108 94.5q-56 22 -128 22q-43 0 -92 -8l-4 -1q-79 -15 -144 -17
q-55 1 -86 30q-19 17 -19 37q0 13 13.5 36.5t109 41.5t193.5 18q60 0 169.5 -12t233.5 -77.5t171 -184.5q19 -47 19 -104q0 -84 -42 -188q-50 -116 -175 -214.5t-299 -156.5q179 -76 232 -168q35 -72 35 -141q0 -73 -56.5 -174.5t-225 -200.5t-378.5 -142q-120 -25 -238 -25
zM1130 1098q-108 0 -158 107q-19 42 -19 87q0 28 7 58q24 75 93 110q44 23 89 23q27 0 77.5 -14.5t89.5 -107.5q15 -39 15 -78q0 -29 -12.5 -76.5t-82.5 -84.5q-53 -24 -99 -24z" />
    <glyph glyph-name="uni570" unicode="&#xfea3;&#xfbfd;&#x621;&#x621;&#x621;&#x621;" horiz-adv-x="1996" 
d="M760 -941q-39 0 -78 3q-241 22 -416.5 148.5t-236.5 343.5q-23 81 -23 173q0 154 64 337q82 218 220 398.5t298 313.5q53 50 135 50q80 0 225 -74q-40 -47 -113 -118q-101 -97 -222 -236q-263 -302 -300 -598q-7 -53 -7 -105q0 -95 29 -209t128 -204.5t271 -97.5h9
q113 0 231 47.5t214 130.5t141 185q25 57 25 115q0 45 -15 91q-67 168 -274 212q-69 14 -138 18q-65 7 -86 40q-18 19 -18 45q0 27 19.5 46.5t46.5 19.5q119 0 249 44t235.5 125t151.5 193q33 89 33 157q0 38 -19 97.5t-108 94.5q-55 21 -125 21q-44 0 -95 -8h-3
q-80 -15 -145 -18q-54 2 -85 31q-19 17 -19 37q0 12 13 36t108 42t191 18q61 0 172 -12t234.5 -78t171.5 -184q19 -47 19 -104q0 -84 -42 -188q-51 -116 -176 -215q-154 -121 -381 -181q65 -31 122 -70q217 -150 217 -341q0 -5 -2 -50.5t-37 -119.5q-63 -132 -207 -226.5
t-325 -140.5q-140 -35 -277 -35z" />
    <glyph glyph-name="uni571" unicode="&#xfb7c;&#xfbfd;&#x621;&#x621;&#x621;&#x621;" horiz-adv-x="1993" 
d="M760 -941q-39 0 -78 3q-241 22 -416.5 148.5t-236.5 343.5q-23 81 -23 173q0 154 64 337q82 218 220 398.5t298 313.5q53 50 135 50q80 0 225 -74q-40 -47 -113 -118q-101 -97 -222 -236q-263 -302 -300 -598q-7 -53 -7 -105q0 -95 29 -209t128 -204.5t271 -97.5h9
q113 0 231 47.5t214 130.5t141 185q25 57 25 115q0 45 -15 91q-67 168 -274 212q-69 14 -138 18q-65 7 -86 40q-18 19 -18 45q0 27 19.5 46.5t46.5 19.5q119 0 249 44t235.5 125t151.5 193q33 89 33 157q0 38 -19 97.5t-108 94.5q-55 21 -125 21q-44 0 -95 -8h-3
q-80 -15 -145 -18q-54 2 -85 31q-19 17 -19 37q0 12 13 36t108 42t191 18q61 0 172 -12t234.5 -78t171.5 -184q19 -47 19 -104q0 -84 -42 -188q-51 -116 -176 -215q-154 -121 -381 -181q65 -31 122 -70q217 -150 217 -341q0 -5 -2 -50.5t-37 -119.5q-63 -132 -207 -226.5
t-325 -140.5q-140 -35 -277 -35zM1803 -1553q-69 0 -119 42.5t-60 120.5q-2 17 -2 33q0 61 33.5 124t118.5 87q33 7 62 7q62 0 114.5 -41t66.5 -122q4 -21 4 -42q0 -57 -33.5 -119t-130.5 -85q-29 -5 -54 -5zM1900 -1047q-71 0 -120 43q-58 53 -58 152q0 59 31.5 121
t108.5 88q34 9 63 9q57 0 111 -40.5t74 -122.5q7 -27 7 -54q0 -160 -174 -193q-23 -3 -43 -3zM1453 -1176q-65 0 -115 41t-62 119q-3 21 -3 41q0 56 29 117.5t109 86.5q38 9 70 9q59 0 111.5 -39t67.5 -120q5 -25 5 -49q0 -53 -30.5 -114.5t-122.5 -85.5q-32 -6 -59 -6z" />
    <glyph glyph-name="uni572" unicode="&#xfe9f;&#xfbfd;&#x621;&#x621;&#x621;&#x621;" horiz-adv-x="1999" 
d="M1780 -295q-108 0 -158 107q-19 42 -19 87q0 28 7 58q24 75 93 110q44 23 89 23q27 0 77.5 -14.5t89.5 -107.5q15 -39 15 -78q0 -29 -12.5 -76.5t-82.5 -84.5q-53 -24 -99 -24zM760 -941q-39 0 -78 3q-241 22 -416.5 148.5t-236.5 343.5q-23 81 -23 173q0 154 64 337
q82 218 220 398.5t298 313.5q53 50 135 50q80 0 225 -74q-40 -47 -113 -118q-101 -97 -222 -236q-263 -302 -300 -598q-7 -53 -7 -105q0 -95 29 -209t128 -204.5t271 -97.5h9q113 0 231 47.5t214 130.5t141 185q25 57 25 115q0 45 -15 91q-67 168 -274 212q-69 14 -138 18
q-65 7 -86 40q-18 19 -18 45q0 27 19.5 46.5t46.5 19.5q119 0 249 44t235.5 125t151.5 193q33 89 33 157q0 38 -19 97.5t-108 94.5q-55 21 -125 21q-44 0 -95 -8h-3q-80 -15 -145 -18q-54 2 -85 31q-19 17 -19 37q0 12 13 36t108 42t191 18q61 0 172 -12t234.5 -78
t171.5 -184q19 -47 19 -104q0 -84 -42 -188q-51 -116 -176 -215q-154 -121 -381 -181q65 -31 122 -70q217 -150 217 -341q0 -5 -2 -50.5t-37 -119.5q-63 -132 -207 -226.5t-325 -140.5q-140 -35 -277 -35z" />
    <glyph glyph-name="uni573" unicode="&#xfea7;&#xfbfd;&#x621;&#x621;&#x621;&#x621;" horiz-adv-x="1999" 
d="M760 -941q-39 0 -78 3q-241 22 -416.5 148.5t-236.5 343.5q-23 81 -23 173q0 154 64 337q82 218 220 398.5t298 313.5q53 50 135 50q80 0 225 -74q-40 -47 -113 -118q-101 -97 -222 -236q-263 -302 -300 -598q-7 -53 -7 -105q0 -95 29 -209t128 -204.5t271 -97.5h9
q113 0 231 47.5t214 130.5t141 185q25 57 25 115q0 45 -15 91q-67 168 -274 212q-69 14 -138 18q-65 7 -86 40q-18 19 -18 45q0 27 19.5 46.5t46.5 19.5q119 0 249 44t235.5 125t151.5 193q33 89 33 157q0 38 -19 97.5t-108 94.5q-55 21 -125 21q-44 0 -95 -8h-3
q-80 -15 -145 -18q-54 2 -85 31q-19 17 -19 37q0 12 13 36t108 42t191 18q61 0 172 -12t234.5 -78t171.5 -184q19 -47 19 -104q0 -84 -42 -188q-51 -116 -176 -215q-154 -121 -381 -181q65 -31 122 -70q217 -150 217 -341q0 -5 -2 -50.5t-37 -119.5q-63 -132 -207 -226.5
t-325 -140.5q-140 -35 -277 -35zM1167 1135q-108 0 -158 107q-19 42 -19 87q0 28 7 58q24 75 93 110q44 23 89 23q27 0 77.5 -14.5t89.5 -107.5q15 -39 15 -78q0 -29 -12.5 -76.5t-82.5 -84.5q-53 -24 -99 -24z" />
    <glyph glyph-name="uni574" unicode="&#xfea3;&#xfbfd;&#x621;&#x621;&#x621;&#x621;&#x621;" horiz-adv-x="1801" 
d="M668 -707q-51 0 -104 5q-412 50 -518 362q-39 119 -39 248q0 22 4 110t42 226.5t82 234.5q48 104 134 116q15 2 32 2q77 0 187 -46q-17 -50 -46 -119q-45 -102 -89.5 -238t-54.5 -296v-29q0 -215 86 -321q92 -112 233 -112q120 0 231 73.5t154 208.5q9 34 9 65
q0 46 -28.5 97t-99.5 85.5t-152 34.5q-28 0 -47 19t-19 46q0 28 19 47t47 19q119 1 249 44.5t235.5 124.5t151.5 193q33 89 33 157q0 38 -19 97.5t-108 94.5q-56 22 -128 22q-43 0 -92 -8l-3 -1q-80 -15 -145 -17q-54 1 -85 30q-19 17 -19 37q0 13 13 36.5t108.5 41.5
t193.5 18q60 0 170 -12t233.5 -77.5t170.5 -184.5q19 -47 19 -104q0 -84 -42 -188q-50 -116 -175 -214q-165 -129 -404 -188q121 -49 195 -157q41 -65 41 -134q0 -35 -20.5 -107t-125 -164t-262.5 -142q-115 -36 -248 -36z" />
    <glyph glyph-name="uni575" unicode="&#xfb7c;&#xfbfd;&#x621;&#x621;&#x621;&#x621;&#x621;" horiz-adv-x="1793" 
d="M668 -707q-51 0 -104 5q-412 50 -518 362q-39 119 -39 248q0 22 4 110t42 226.5t82 234.5q48 104 134 116q15 2 32 2q77 0 187 -46q-17 -50 -46 -119q-45 -102 -89.5 -238t-54.5 -296v-29q0 -215 86 -321q92 -112 233 -112q120 0 231 73.5t154 208.5q9 34 9 65
q0 46 -28.5 97t-99.5 85.5t-152 34.5q-28 0 -47 19t-19 46q0 28 19 47t47 19q119 1 249 44.5t235.5 124.5t151.5 193q33 89 33 157q0 38 -19 97.5t-108 94.5q-56 22 -128 22q-43 0 -92 -8l-3 -1q-80 -15 -145 -17q-54 1 -85 30q-19 17 -19 37q0 13 13 36.5t108.5 41.5
t193.5 18q60 0 170 -12t233.5 -77.5t170.5 -184.5q19 -47 19 -104q0 -84 -42 -188q-50 -116 -175 -214q-165 -129 -404 -188q121 -49 195 -157q41 -65 41 -134q0 -35 -20.5 -107t-125 -164t-262.5 -142q-115 -36 -248 -36zM1539 -1424q-69 0 -119 42.5t-60 120.5
q-2 17 -2 33q0 61 33.5 124t118.5 87q33 7 62 7q62 0 114.5 -41t66.5 -122q4 -21 4 -42q0 -57 -33.5 -119t-130.5 -85q-29 -5 -54 -5zM1636 -918q-71 0 -120 43q-58 53 -58 152q0 59 31.5 121t108.5 88q34 9 63 9q57 0 111 -40.5t74 -122.5q7 -27 7 -54q0 -160 -174 -193
q-23 -3 -43 -3zM1189 -1047q-65 0 -115 41t-62 119q-3 21 -3 41q0 56 29 117.5t109 86.5q38 9 70 9q59 0 111.5 -39t67.5 -120q5 -25 5 -49q0 -53 -30.5 -114.5t-122.5 -85.5q-32 -6 -59 -6z" />
    <glyph glyph-name="uni576" unicode="&#xfe9f;&#xfbfd;&#x621;&#x621;&#x621;&#x621;&#x621;" horiz-adv-x="1801" 
d="M1571 -487q-108 0 -158 107q-19 42 -19 87q0 28 7 58q24 75 93 110q44 23 89 23q27 0 77.5 -14.5t89.5 -107.5q15 -39 15 -78q0 -29 -12.5 -76.5t-82.5 -84.5q-53 -24 -99 -24zM668 -707q-51 0 -104 5q-412 50 -518 362q-39 119 -39 248q0 22 4 110t42 226.5t82 234.5
q48 104 134 116q15 2 32 2q77 0 187 -46q-17 -50 -46 -119q-45 -102 -89.5 -238t-54.5 -296v-29q0 -215 86 -321q92 -112 233 -112q120 0 231 73.5t154 208.5q9 34 9 65q0 46 -28.5 97t-99.5 85.5t-152 34.5q-28 0 -47 19t-19 46q0 28 19 47t47 19q119 1 249 44.5
t235.5 124.5t151.5 193q33 89 33 157q0 38 -19 97.5t-108 94.5q-56 22 -128 22q-43 0 -92 -8l-3 -1q-80 -15 -145 -17q-54 1 -85 30q-19 17 -19 37q0 13 13 36.5t108.5 41.5t193.5 18q60 0 170 -12t233.5 -77.5t170.5 -184.5q19 -47 19 -104q0 -84 -42 -188
q-50 -116 -175 -214q-165 -129 -404 -188q121 -49 195 -157q41 -65 41 -134q0 -35 -20.5 -107t-125 -164t-262.5 -142q-115 -36 -248 -36z" />
    <glyph glyph-name="uni577" unicode="&#xfea7;&#xfbfd;&#x621;&#x621;&#x621;&#x621;&#x621;" horiz-adv-x="1801" 
d="M668 -707q-51 0 -104 5q-412 50 -518 362q-39 119 -39 248q0 22 4 110t42 226.5t82 234.5q48 104 134 116q15 2 32 2q77 0 187 -46q-17 -50 -46 -119q-45 -102 -89.5 -238t-54.5 -296v-29q0 -215 86 -321q92 -112 233 -112q120 0 231 73.5t154 208.5q9 34 9 65
q0 46 -28.5 97t-99.5 85.5t-152 34.5q-28 0 -47 19t-19 46q0 28 19 47t47 19q119 1 249 44.5t235.5 124.5t151.5 193q33 89 33 157q0 38 -19 97.5t-108 94.5q-56 22 -128 22q-43 0 -92 -8l-3 -1q-80 -15 -145 -17q-54 1 -85 30q-19 17 -19 37q0 13 13 36.5t108.5 41.5
t193.5 18q60 0 170 -12t233.5 -77.5t170.5 -184.5q19 -47 19 -104q0 -84 -42 -188q-50 -116 -175 -214q-165 -129 -404 -188q121 -49 195 -157q41 -65 41 -134q0 -35 -20.5 -107t-125 -164t-262.5 -142q-115 -36 -248 -36zM1167 1135q-108 0 -158 107q-19 42 -19 87
q0 28 7 58q24 75 93 110q44 23 89 23q27 0 77.5 -14.5t89.5 -107.5q15 -39 15 -78q0 -29 -12.5 -76.5t-82.5 -84.5q-53 -24 -99 -24z" />
    <glyph glyph-name="uni578" unicode="&#xfea3;&#xfbfd;&#x621;&#x621;&#x621;&#x621;&#x621;&#x621;" horiz-adv-x="1701" 
d="M692 -804q-373 0 -569 298q-115 175 -115 409q0 15 3.5 150.5t178.5 417.5q46 64 113 64q12 0 60.5 -7.5t139.5 -50.5l-39 -85q-52 -104 -105 -237t-74 -277q-6 -50 -6 -98q0 -81 22.5 -179t103 -178.5t223.5 -94.5l26 -1q92 0 189 48t170 134t89 183q2 19 2 37
q0 101 -72.5 160t-183.5 82t-197 29q-25 3 -42 21.5t-17 43.5q0 27 19.5 46.5t47.5 19.5q118 0 248 44t236 125t152 193q33 89 33 157q0 38 -19 97.5t-108 94.5q-55 21 -125 21q-44 0 -95 -8h-4q-79 -15 -144 -18q-55 2 -86 30q-19 18 -19 38q0 12 13 36t108 42t191 18
q61 0 172 -12t235 -78t171 -184q19 -47 19 -104q0 -84 -42 -188q-50 -117 -176 -215.5t-301 -156.5q-28 -10 -54 -17q128 -42 233 -127t123 -201l1 -21q0 -92 -67 -185.5t-177 -168.5q-217 -147 -485 -147z" />
    <glyph glyph-name="uni579" unicode="&#xfb7c;&#xfbfd;&#x621;&#x621;&#x621;&#x621;&#x621;&#x621;" horiz-adv-x="1701" 
d="M692 -804q-373 0 -569 298q-115 175 -115 409q0 15 3.5 150.5t178.5 417.5q46 64 113 64q12 0 60.5 -7.5t139.5 -50.5l-39 -85q-52 -104 -105 -237t-74 -277q-6 -50 -6 -98q0 -81 22.5 -179t103 -178.5t223.5 -94.5l26 -1q92 0 189 48t170 134t89 183q2 19 2 37
q0 101 -72.5 160t-183.5 82t-197 29q-25 3 -42 21.5t-17 43.5q0 27 19.5 46.5t47.5 19.5q118 0 248 44t236 125t152 193q33 89 33 157q0 38 -19 97.5t-108 94.5q-55 21 -125 21q-44 0 -95 -8h-4q-79 -15 -144 -18q-55 2 -86 30q-19 18 -19 38q0 12 13 36t108 42t191 18
q61 0 172 -12t235 -78t171 -184q19 -47 19 -104q0 -84 -42 -188q-50 -117 -176 -215.5t-301 -156.5q-28 -10 -54 -17q128 -42 233 -127t123 -201l1 -21q0 -92 -67 -185.5t-177 -168.5q-217 -147 -485 -147zM1649 -1418q-46 0 -96 31t-72 107q-9 33 -9 66q0 43 21.5 102
t101.5 95q49 18 90 18q44 0 96 -30t77 -108q12 -36 12 -73q0 -40 -21.5 -98.5t-113.5 -94.5q-47 -15 -86 -15zM1674 -904q-49 0 -97.5 32.5t-67.5 107.5q-9 33 -9 66q0 40 19.5 97.5t91.5 93.5q47 20 89 20q41 0 94.5 -29.5t84.5 -107.5q16 -41 16 -82q0 -36 -20.5 -93
t-125.5 -94q-41 -11 -75 -11zM1252 -1095q-45 0 -95 30t-73 106q-11 37 -11 74q0 39 17.5 95.5t92.5 91.5q53 21 97 21q41 0 92.5 -28t78.5 -105q14 -40 14 -80q0 -37 -19 -94t-106 -94q-48 -17 -88 -17z" />
    <glyph glyph-name="uni580" unicode="&#xfe9f;&#xfbfd;&#x621;&#x621;&#x621;&#x621;&#x621;&#x621;" horiz-adv-x="1701" 
d="M1646 -510q-108 0 -158 107q-19 42 -19 87q0 28 7 58q24 75 93 110q44 23 89 23q27 0 77.5 -14.5t89.5 -107.5q15 -39 15 -78q0 -29 -12.5 -76.5t-82.5 -84.5q-53 -24 -99 -24zM692 -804q-373 0 -569 298q-115 175 -115 409q0 15 3.5 150.5t178.5 417.5q46 64 113 64
q12 0 60.5 -7.5t139.5 -50.5l-39 -85q-52 -104 -105 -237t-74 -277q-6 -50 -6 -98q0 -81 22.5 -179t103 -178.5t223.5 -94.5l26 -1q92 0 189 48t170 134t89 183q2 19 2 37q0 101 -72.5 160t-183.5 82t-197 29q-25 3 -42 21.5t-17 43.5q0 27 19.5 46.5t47.5 19.5
q118 0 248 44t236 125t152 193q33 89 33 157q0 38 -19 97.5t-108 94.5q-55 21 -125 21q-44 0 -95 -8h-4q-79 -15 -144 -18q-55 2 -86 30q-19 18 -19 38q0 12 13 36t108 42t191 18q61 0 172 -12t235 -78t171 -184q19 -47 19 -104q0 -84 -42 -188q-50 -117 -176 -215.5
t-301 -156.5q-28 -10 -54 -17q128 -42 233 -127t123 -201l1 -21q0 -92 -67 -185.5t-177 -168.5q-217 -147 -485 -147z" />
    <glyph glyph-name="uni581" unicode="&#xfea7;&#xfbfd;&#x621;&#x621;&#x621;&#x621;&#x621;&#x621;" horiz-adv-x="1701" 
d="M692 -804q-373 0 -569 298q-115 175 -115 409q0 15 3.5 150.5t178.5 417.5q46 64 113 64q12 0 60.5 -7.5t139.5 -50.5l-39 -85q-52 -104 -105 -237t-74 -277q-6 -50 -6 -98q0 -81 22.5 -179t103 -178.5t223.5 -94.5l26 -1q92 0 189 48t170 134t89 183q2 19 2 37
q0 101 -72.5 160t-183.5 82t-197 29q-25 3 -42 21.5t-17 43.5q0 27 19.5 46.5t47.5 19.5q118 0 248 44t236 125t152 193q33 89 33 157q0 38 -19 97.5t-108 94.5q-55 21 -125 21q-44 0 -95 -8h-4q-79 -15 -144 -18q-55 2 -86 30q-19 18 -19 38q0 12 13 36t108 42t191 18
q61 0 172 -12t235 -78t171 -184q19 -47 19 -104q0 -84 -42 -188q-50 -117 -176 -215.5t-301 -156.5q-28 -10 -54 -17q128 -42 233 -127t123 -201l1 -21q0 -92 -67 -185.5t-177 -168.5q-217 -147 -485 -147zM1167 1135q-108 0 -158 107q-19 42 -19 87q0 28 7 58q24 75 93 110
q44 23 89 23q27 0 77.5 -14.5t89.5 -107.5q15 -39 15 -78q0 -29 -12.5 -76.5t-82.5 -84.5q-53 -24 -99 -24z" />
    <glyph glyph-name="uni582" unicode="&#xfea3;&#xfbfd;&#x621;&#x621;&#x621;&#x621;&#x621;&#x621;&#x621;" horiz-adv-x="1300" 
d="M727 -750q102 0 262 20t356 78.5t335 129.5q90 50 138 94t58 112q3 21 3 46q0 59 -16 143q-194 -115 -367 -193q-88 -39 -235 -79t-314 -65q-129 -19 -247 -19q-35 0 -126 4.5t-181 58.5q-96 64 -122 153q-9 32 -9 61q0 167 206 198q72 8 139 8h32q66 0 136 8t146 46
q58 29 119 83.5t101 137.5q38 78 38 184q0 101 -55 192q-52 83 -159 137q-163 77 -382 77q-96 0 -191 -18t-114 -52q-7 -13 -7 -26q0 -20 25 -43t79 -24q65 2 145 17q2 0 3 1q49 8 92 8q88 0 152 -32q79 -43 102 -130q10 -39 10 -78q0 -156 -120 -213q-34 -13 -69 -13
q-36 0 -75 4q-33 5 -70 5q-47 0 -100 -8q-198 -44 -318 -193q-103 -127 -119 -291l-1 -28q0 -112 54 -210.5t135 -156.5q137 -96 332 -121q97 -13 199 -13z" />
    <glyph glyph-name="uni583" unicode="&#xfb7c;&#xfbfd;&#x621;&#x621;&#x621;&#x621;&#x621;&#x621;&#x621;" horiz-adv-x="1300" 
d="M727 -750q102 0 262 20t356 78.5t335 129.5q90 50 138 94t58 112q3 21 3 46q0 59 -16 143q-194 -115 -367 -193q-88 -39 -235 -79t-314 -65q-129 -19 -247 -19q-35 0 -126 4.5t-181 58.5q-96 64 -122 153q-9 32 -9 61q0 167 206 198q72 8 139 8h32q66 0 136 8t146 46
q58 29 119 83.5t101 137.5q38 78 38 184q0 101 -55 192q-52 83 -159 137q-163 77 -382 77q-96 0 -191 -18t-114 -52q-7 -13 -7 -26q0 -20 25 -43t79 -24q65 2 145 17q2 0 3 1q49 8 92 8q88 0 152 -32q79 -43 102 -130q10 -39 10 -78q0 -156 -120 -213q-34 -13 -69 -13
q-36 0 -75 4q-33 5 -70 5q-47 0 -100 -8q-198 -44 -318 -193q-103 -127 -119 -291l-1 -28q0 -112 54 -210.5t135 -156.5q137 -96 332 -121q97 -13 199 -13zM784 -1241q-28 0 -80 15t-96 114q-14 37 -14 72q0 43 27.5 98t97.5 93q46 25 94 25q24 0 73.5 -12t96.5 -110
q20 -48 20 -91q0 -39 -26.5 -93t-99.5 -89q-46 -22 -93 -22zM434 -1607q-34 0 -90 17.5t-93 111.5q-9 31 -9 60q0 44 28.5 99.5t95.5 93.5q48 26 98 26q20 0 66 -9.5t95 -100.5q26 -57 26 -105q0 -38 -26 -91t-104 -85q-43 -17 -87 -17zM272 -1172q-32 0 -85 16.5t-95 118.5
q-11 32 -11 63q0 44 30 98.5t101 90.5q46 24 94 24q25 0 74.5 -13.5t94.5 -112.5q16 -42 16 -79q0 -43 -28.5 -97.5t-103.5 -88.5q-43 -20 -87 -20z" />
    <glyph glyph-name="uni584" unicode="&#xfe9f;&#xfbfd;&#x621;&#x621;&#x621;&#x621;&#x621;&#x621;&#x621;" horiz-adv-x="1300" 
d="M608 -430q-108 0 -158 107q-19 42 -19 87q0 28 7 58q24 75 93 110q44 23 89 23q27 0 77.5 -14.5t89.5 -107.5q15 -39 15 -78q0 -29 -12.5 -76.5t-82.5 -84.5q-53 -24 -99 -24zM727 -750q102 0 262 20t356 78.5t335 129.5q90 50 138 94t58 112q3 21 3 46q0 59 -16 143
q-194 -115 -367 -193q-88 -39 -235 -79t-314 -65q-129 -19 -247 -19q-35 0 -126 4.5t-181 58.5q-96 64 -122 153q-9 32 -9 61q0 167 206 198q72 8 139 8h32q66 0 136 8t146 46q58 29 119 83.5t101 137.5q38 78 38 184q0 101 -55 192q-52 83 -159 137q-163 77 -382 77
q-96 0 -191 -18t-114 -52q-7 -13 -7 -26q0 -20 25 -43t79 -24q65 2 145 17q2 0 3 1q49 8 92 8q88 0 152 -32q79 -43 102 -130q10 -39 10 -78q0 -156 -120 -213q-34 -13 -69 -13q-36 0 -75 4q-33 5 -70 5q-47 0 -100 -8q-198 -44 -318 -193q-103 -127 -119 -291l-1 -28
q0 -112 54 -210.5t135 -156.5q137 -96 332 -121q97 -13 199 -13z" />
    <glyph glyph-name="uni585" unicode="&#xfea7;&#xfbfd;&#x621;&#x621;&#x621;&#x621;&#x621;&#x621;&#x621;" horiz-adv-x="1300" 
d="M727 -750q102 0 262 20t356 78.5t335 129.5q90 50 138 94t58 112q3 21 3 46q0 59 -16 143q-194 -115 -367 -193q-88 -39 -235 -79t-314 -65q-129 -19 -247 -19q-35 0 -126 4.5t-181 58.5q-96 64 -122 153q-9 32 -9 61q0 167 206 198q72 8 139 8h32q66 0 136 8t146 46
q58 29 119 83.5t101 137.5q38 78 38 184q0 101 -55 192q-52 83 -159 137q-163 77 -382 77q-96 0 -191 -18t-114 -52q-7 -13 -7 -26q0 -20 25 -43t79 -24q65 2 145 17q2 0 3 1q49 8 92 8q88 0 152 -32q79 -43 102 -130q10 -39 10 -78q0 -156 -120 -213q-34 -13 -69 -13
q-36 0 -75 4q-33 5 -70 5q-47 0 -100 -8q-198 -44 -318 -193q-103 -127 -119 -291l-1 -28q0 -112 54 -210.5t135 -156.5q137 -96 332 -121q97 -13 199 -13zM539 1035q-108 0 -158 107q-19 42 -19 87q0 28 7 58q24 75 93 110q44 23 89 23q27 0 77.5 -14.5t89.5 -107.5
q15 -39 15 -78q0 -29 -12.5 -76.5t-82.5 -84.5q-53 -24 -99 -24z" />
    <glyph glyph-name="uni586" unicode="&#xfea3;&#xfe8c;&#xfe8c;" horiz-adv-x="1099" 
d="M7 0q-27 0 -46.5 19t-19.5 46q0 28 19.5 47t46.5 19q74 1 159 37t172 90q139 86 242.5 207t166.5 255q27 56 27 102q0 28 -19 73t-155 60q-28 2 -53 2q-117 0 -195.5 -49.5t-102.5 -141.5q-10 -38 -10 -77q0 -55 19 -112q4 -12 4 -25q0 -25 -18.5 -57t-61.5 -46
q-12 -4 -25 -4q-32 0 -75 31.5t-87 144.5q-38 94 -38 176q0 37 8 72q35 120 140.5 177.5t245.5 61.5l33 1q124 0 250 -34t220 -101t136 -154q20 -47 20 -96q0 -52 -32 -133t-120 -180q-156 -180 -380.5 -294t-470.5 -117z" />
    <glyph glyph-name="uni587" unicode="&#xfb7c;&#xfe8c;&#xfe8c;" horiz-adv-x="1099" 
d="M7 0q-27 0 -46.5 19t-19.5 46q0 28 19.5 47t46.5 19q74 1 159 37t172 90q139 86 242.5 207t166.5 255q27 56 27 102q0 28 -19 73t-155 60q-28 2 -53 2q-117 0 -195.5 -49.5t-102.5 -141.5q-10 -38 -10 -77q0 -55 19 -112q4 -12 4 -25q0 -25 -18.5 -57t-61.5 -46
q-12 -4 -25 -4q-32 0 -75 31.5t-87 144.5q-38 94 -38 176q0 37 8 72q35 120 140.5 177.5t245.5 61.5l33 1q124 0 250 -34t220 -101t136 -154q20 -47 20 -96q0 -52 -32 -133t-120 -180q-156 -180 -380.5 -294t-470.5 -117zM574 -939q-69 0 -119 42.5t-60 120.5q-2 17 -2 33
q0 61 33.5 124t118.5 87q33 7 62 7q62 0 114.5 -41t66.5 -122q4 -21 4 -42q0 -57 -33.5 -119t-130.5 -85q-29 -5 -54 -5zM671 -433q-71 0 -120 43q-58 53 -58 152q0 59 31.5 121t108.5 88q34 9 63 9q57 0 111 -40.5t74 -122.5q7 -27 7 -54q0 -160 -174 -193q-23 -3 -43 -3z
M224 -562q-65 0 -115 41t-62 119q-3 21 -3 41q0 56 29 117.5t109 86.5q38 9 70 9q59 0 111.5 -39t67.5 -120q5 -25 5 -49q0 -53 -30.5 -114.5t-122.5 -85.5q-32 -6 -59 -6z" />
    <glyph glyph-name="uni588" unicode="&#xfe9f;&#xfe8c;&#xfe8c;" horiz-adv-x="1099" 
d="M7 0q-27 0 -46.5 19t-19.5 46q0 28 19.5 47t46.5 19q74 1 159 37t172 90q139 86 242.5 207t166.5 255q27 56 27 102q0 28 -19 73t-155 60q-28 2 -53 2q-117 0 -195.5 -49.5t-102.5 -141.5q-10 -38 -10 -77q0 -55 19 -112q4 -12 4 -25q0 -25 -18.5 -57t-61.5 -46
q-12 -4 -25 -4q-32 0 -75 31.5t-87 144.5q-38 94 -38 176q0 37 8 72q35 120 140.5 177.5t245.5 61.5l33 1q124 0 250 -34t220 -101t136 -154q20 -47 20 -96q0 -52 -32 -133t-120 -180q-156 -180 -380.5 -294t-470.5 -117zM395 -464q-108 0 -158 107q-19 42 -19 87q0 28 7 58
q24 75 93 110q44 23 89 23q27 0 77.5 -14.5t89.5 -107.5q15 -39 15 -78q0 -29 -12.5 -76.5t-82.5 -84.5q-53 -24 -99 -24z" />
    <glyph glyph-name="uni589" unicode="&#xfea7;&#xfe8c;&#xfe8c;" horiz-adv-x="1099" 
d="M7 0q-27 0 -46.5 19t-19.5 46q0 28 19.5 47t46.5 19q74 1 159 37t172 90q139 86 242.5 207t166.5 255q27 56 27 102q0 28 -19 73t-155 60q-28 2 -53 2q-117 0 -195.5 -49.5t-102.5 -141.5q-10 -38 -10 -77q0 -55 19 -112q4 -12 4 -25q0 -25 -18.5 -57t-61.5 -46
q-12 -4 -25 -4q-32 0 -75 31.5t-87 144.5q-38 94 -38 176q0 37 8 72q35 120 140.5 177.5t245.5 61.5l33 1q124 0 250 -34t220 -101t136 -154q20 -47 20 -96q0 -52 -32 -133t-120 -180q-156 -180 -380.5 -294t-470.5 -117zM196 1221q-108 0 -158 107q-19 42 -19 87q0 28 7 58
q24 75 93 110q44 23 89 23q27 0 77.5 -14.5t89.5 -107.5q15 -39 15 -78q0 -29 -12.5 -76.5t-82.5 -84.5q-53 -24 -99 -24z" />
    <glyph glyph-name="uni590" unicode="&#xfea4;&#xfe8c;&#xfe8c;" horiz-adv-x="1099" 
d="M1121 0q-139 0 -236.5 26.5t-162.5 72t-102 102.5q-137 -93 -294 -146.5t-319 -54.5q-27 0 -46.5 19t-19.5 46q0 28 19.5 47t46.5 19q74 1 159 37t172 90q139 86 242.5 207t166.5 255q27 56 27 102q0 28 -19 73t-155 60q-28 2 -53 2q-117 0 -195.5 -49.5t-102.5 -141.5
q-10 -38 -10 -77q0 -55 19 -112q4 -12 4 -25q0 -25 -18.5 -57t-61.5 -46q-12 -4 -25 -4q-32 0 -75 31.5t-87 144.5q-38 94 -38 176q0 37 8 72q35 120 140.5 177.5t245.5 61.5l33 1q124 0 250 -34t220 -101t136 -154q20 -47 20 -96q0 -131 -135 -293q-47 -90 -47 -149
q0 -19 12.5 -59t90 -66t190.5 -26q27 0 46 -19t19 -47q0 -27 -19 -46t-46 -19z" />
    <glyph glyph-name="uni591" unicode="&#xfb7d;&#xfe8c;&#xfe8c;" horiz-adv-x="1099" 
d="M1121 0q-139 0 -236.5 26.5t-162.5 72t-102 102.5q-137 -93 -294 -146.5t-319 -54.5q-27 0 -46.5 19t-19.5 46q0 28 19.5 47t46.5 19q74 1 159 37t172 90q139 86 242.5 207t166.5 255q27 56 27 102q0 28 -19 73t-155 60q-28 2 -53 2q-117 0 -195.5 -49.5t-102.5 -141.5
q-10 -38 -10 -77q0 -55 19 -112q4 -12 4 -25q0 -25 -18.5 -57t-61.5 -46q-12 -4 -25 -4q-32 0 -75 31.5t-87 144.5q-38 94 -38 176q0 37 8 72q35 120 140.5 177.5t245.5 61.5l33 1q124 0 250 -34t220 -101t136 -154q20 -47 20 -96q0 -131 -135 -293q-47 -90 -47 -149
q0 -19 12.5 -59t90 -66t190.5 -26q27 0 46 -19t19 -47q0 -27 -19 -46t-46 -19zM574 -939q-69 0 -119 42.5t-60 120.5q-2 17 -2 33q0 61 33.5 124t118.5 87q33 7 62 7q62 0 114.5 -41t66.5 -122q4 -21 4 -42q0 -57 -33.5 -119t-130.5 -85q-29 -5 -54 -5zM671 -433
q-71 0 -120 43q-58 53 -58 152q0 59 31.5 121t108.5 88q34 9 63 9q57 0 111 -40.5t74 -122.5q7 -27 7 -54q0 -160 -174 -193q-23 -3 -43 -3zM224 -562q-65 0 -115 41t-62 119q-3 21 -3 41q0 56 29 117.5t109 86.5q38 9 70 9q59 0 111.5 -39t67.5 -120q5 -25 5 -49
q0 -53 -30.5 -114.5t-122.5 -85.5q-32 -6 -59 -6z" />
    <glyph glyph-name="uni592" unicode="&#xfea0;&#xfe8c;&#xfe8c;" horiz-adv-x="1099" 
d="M1121 0q-139 0 -236.5 26.5t-162.5 72t-102 102.5q-137 -93 -294 -146.5t-319 -54.5q-27 0 -46.5 19t-19.5 46q0 28 19.5 47t46.5 19q74 1 159 37t172 90q139 86 242.5 207t166.5 255q27 56 27 102q0 28 -19 73t-155 60q-28 2 -53 2q-117 0 -195.5 -49.5t-102.5 -141.5
q-10 -38 -10 -77q0 -55 19 -112q4 -12 4 -25q0 -25 -18.5 -57t-61.5 -46q-12 -4 -25 -4q-32 0 -75 31.5t-87 144.5q-38 94 -38 176q0 37 8 72q35 120 140.5 177.5t245.5 61.5l33 1q124 0 250 -34t220 -101t136 -154q20 -47 20 -96q0 -131 -135 -293q-47 -90 -47 -149
q0 -19 12.5 -59t90 -66t190.5 -26q27 0 46 -19t19 -47q0 -27 -19 -46t-46 -19zM395 -464q-108 0 -158 107q-19 42 -19 87q0 28 7 58q24 75 93 110q44 23 89 23q27 0 77.5 -14.5t89.5 -107.5q15 -39 15 -78q0 -29 -12.5 -76.5t-82.5 -84.5q-53 -24 -99 -24z" />
    <glyph glyph-name="uni593" unicode="&#xfea8;&#xfe8c;&#xfe8c;" horiz-adv-x="1099" 
d="M1121 0q-139 0 -236.5 26.5t-162.5 72t-102 102.5q-137 -93 -294 -146.5t-319 -54.5q-27 0 -46.5 19t-19.5 46q0 28 19.5 47t46.5 19q74 1 159 37t172 90q139 86 242.5 207t166.5 255q27 56 27 102q0 28 -19 73t-155 60q-28 2 -53 2q-117 0 -195.5 -49.5t-102.5 -141.5
q-10 -38 -10 -77q0 -55 19 -112q4 -12 4 -25q0 -25 -18.5 -57t-61.5 -46q-12 -4 -25 -4q-32 0 -75 31.5t-87 144.5q-38 94 -38 176q0 37 8 72q35 120 140.5 177.5t245.5 61.5l33 1q124 0 250 -34t220 -101t136 -154q20 -47 20 -96q0 -131 -135 -293q-47 -90 -47 -149
q0 -19 12.5 -59t90 -66t190.5 -26q27 0 46 -19t19 -47q0 -27 -19 -46t-46 -19zM187 1221q-108 0 -158 107q-19 42 -19 87q0 28 7 58q24 75 93 110q44 23 89 23q27 0 77.5 -14.5t89.5 -107.5q15 -39 15 -78q0 -29 -12.5 -76.5t-82.5 -84.5q-53 -24 -99 -24z" />
    <glyph glyph-name="uni594" unicode="&#x62d;&#x621;&#x621;" horiz-adv-x="1280" 
d="M656 -1053q-2 0 -98 1t-258 96q-151 95 -231 259q-62 127 -62 268q0 42 6 86q29 189 117.5 317.5t210.5 219t250 165.5q91 55 173.5 111.5t146.5 122.5q35 37 45 77q3 10 3 19q0 30 -29.5 61.5t-126.5 55.5q-69 16 -125 16q-68 0 -140 -32.5t-109 -119.5
q-24 -57 -24 -121q0 -33 6 -67l1 -12q0 -32 -25.5 -64t-70.5 -40l-14 -1q-99 0 -146 199q-15 64 -15 122q0 69 22 127q85 185 341 185q41 0 133.5 -11t227.5 -71q79 -34 156 -84.5t120 -122.5q28 -47 28 -105q0 -31 -8 -65q-36 -118 -133.5 -196t-208.5 -138l-66 -39
q-124 -73 -231 -154t-173.5 -190.5t-68.5 -267.5q2 -148 82 -242q105 -126 281 -126q85 0 190 38t212.5 111t180.5 136q29 21 57 21q23 0 60 -21.5t78 -63.5q25 -26 44 -38q-23 -50 -50.5 -83.5t-76.5 -76.5q-136 -121 -315.5 -191.5t-366.5 -70.5z" />
    <glyph glyph-name="uni595" unicode="&#x686;&#x621;&#x621;" horiz-adv-x="1280" 
d="M656 -1053q-2 0 -98 1t-258 96q-151 95 -231 259q-62 127 -62 268q0 42 6 86q29 189 117.5 317.5t210.5 219t250 165.5q91 55 173.5 111.5t146.5 122.5q35 37 45 77q3 10 3 19q0 30 -29.5 61.5t-126.5 55.5q-69 16 -125 16q-68 0 -140 -32.5t-109 -119.5
q-24 -57 -24 -121q0 -33 6 -67l1 -12q0 -32 -25.5 -64t-70.5 -40l-14 -1q-99 0 -146 199q-15 64 -15 122q0 69 22 127q85 185 341 185q41 0 133.5 -11t227.5 -71q79 -34 156 -84.5t120 -122.5q28 -47 28 -105q0 -31 -8 -65q-36 -118 -133.5 -196t-208.5 -138l-66 -39
q-124 -73 -231 -154t-173.5 -190.5t-68.5 -267.5q2 -148 82 -242q105 -126 281 -126q85 0 190 38t212.5 111t180.5 136q29 21 57 21q23 0 60 -21.5t78 -63.5q25 -26 44 -38q-23 -50 -50.5 -83.5t-76.5 -76.5q-136 -121 -315.5 -191.5t-366.5 -70.5zM667 -343q-36 0 -84 25
t-76 97q-15 39 -15 78q0 33 17 86.5t102 92.5q49 18 89 18q39 0 85.5 -26t70.5 -97q12 -36 12 -73q0 -35 -16.5 -88.5t-91.5 -90.5q-50 -22 -93 -22zM639 -765q-34 0 -84 24.5t-83 96.5q-19 42 -19 84q0 30 16 82.5t114 92.5q43 14 78 14q41 0 86.5 -27.5t67.5 -96.5
q11 -36 11 -72q0 -34 -15 -86t-81 -89q-48 -23 -91 -23zM994 -614q-34 0 -82 23t-77 95q-17 42 -17 85q0 30 14.5 81.5t94.5 90.5q50 20 91 20q37 0 83.5 -25t72.5 -96q14 -40 14 -80q0 -31 -13.5 -82t-81.5 -88q-54 -24 -99 -24z" />
    <glyph glyph-name="uni596" unicode="&#x62c;&#x621;&#x621;" horiz-adv-x="1280" 
d="M656 -1053q-2 0 -98 1t-258 96q-151 95 -231 259q-62 127 -62 268q0 42 6 86q29 189 117.5 317.5t210.5 219t250 165.5q91 55 173.5 111.5t146.5 122.5q35 37 45 77q3 10 3 19q0 30 -29.5 61.5t-126.5 55.5q-69 16 -125 16q-68 0 -140 -32.5t-109 -119.5
q-24 -57 -24 -121q0 -33 6 -67l1 -12q0 -32 -25.5 -64t-70.5 -40l-14 -1q-99 0 -146 199q-15 64 -15 122q0 69 22 127q85 185 341 185q41 0 133.5 -11t227.5 -71q79 -34 156 -84.5t120 -122.5q28 -47 28 -105q0 -31 -8 -65q-36 -118 -133.5 -196t-208.5 -138l-66 -39
q-124 -73 -231 -154t-173.5 -190.5t-68.5 -267.5q2 -148 82 -242q105 -126 281 -126q85 0 190 38t212.5 111t180.5 136q29 21 57 21q23 0 60 -21.5t78 -63.5q25 -26 44 -38q-23 -50 -50.5 -83.5t-76.5 -76.5q-136 -121 -315.5 -191.5t-366.5 -70.5zM676 -579
q-108 0 -158 107q-19 42 -19 87q0 28 7 58q24 75 93 110q44 23 89 23q27 0 77.5 -14.5t89.5 -107.5q15 -39 15 -78q0 -29 -12.5 -76.5t-82.5 -84.5q-53 -24 -99 -24z" />
    <glyph glyph-name="uni597" unicode="&#x62e;&#x621;&#x621;" horiz-adv-x="1280" 
d="M656 -1053q-2 0 -98 1t-258 96q-151 95 -231 259q-62 127 -62 268q0 42 6 86q29 189 117.5 317.5t210.5 219t250 165.5q91 55 173.5 111.5t146.5 122.5q35 37 45 77q3 10 3 19q0 30 -29.5 61.5t-126.5 55.5q-69 16 -125 16q-68 0 -140 -32.5t-109 -119.5
q-24 -57 -24 -121q0 -33 6 -67l1 -12q0 -32 -25.5 -64t-70.5 -40l-14 -1q-99 0 -146 199q-15 64 -15 122q0 69 22 127q85 185 341 185q41 0 133.5 -11t227.5 -71q79 -34 156 -84.5t120 -122.5q28 -47 28 -105q0 -31 -8 -65q-36 -118 -133.5 -196t-208.5 -138l-66 -39
q-124 -73 -231 -154t-173.5 -190.5t-68.5 -267.5q2 -148 82 -242q105 -126 281 -126q85 0 190 38t212.5 111t180.5 136q29 21 57 21q23 0 60 -21.5t78 -63.5q25 -26 44 -38q-23 -50 -50.5 -83.5t-76.5 -76.5q-136 -121 -315.5 -191.5t-366.5 -70.5zM408 1106
q-108 0 -158 107q-19 42 -19 87q0 28 7 58q24 75 93 110q44 23 89 23q27 0 77.5 -14.5t89.5 -107.5q15 -39 15 -78q0 -29 -12.5 -76.5t-82.5 -84.5q-53 -24 -99 -24z" />
    <glyph glyph-name="uni598" unicode="&#xfea2;&#x621;&#x621;" horiz-adv-x="1308" 
d="M656 -1053q-2 0 -98 1t-258 96q-151 95 -231 259q-62 127 -62 268q0 42 6 86q29 189 117.5 317.5t210.5 219t250 165.5q91 55 173.5 111.5t146.5 122.5q35 37 45 77q3 10 3 19q0 30 -29.5 61.5t-126.5 55.5q-69 16 -125 16q-68 0 -140 -32.5t-109 -119.5
q-24 -57 -24 -121q0 -33 6 -67l1 -12q0 -32 -25.5 -64t-70.5 -40l-14 -1q-99 0 -146 199q-15 64 -15 122q0 69 22 127q85 185 341 185q41 0 133.5 -11t227.5 -71q79 -34 156 -84.5t120 -122.5q28 -47 28 -105q0 -89 -58 -171q-47 -91 -47 -151q0 -18 11.5 -58.5t89.5 -66.5
t190 -26q28 0 47 -19t19 -47q0 -27 -19 -46t-47 -19q-145 0 -246 29.5t-166 79t-100 110.5l-90 -53q-124 -73 -231 -154t-173.5 -190.5t-68.5 -267.5q2 -148 82 -242q105 -126 281 -126q85 0 190 38t212.5 111t180.5 136q29 21 57 21q23 0 60 -21.5t78 -63.5q25 -26 44 -38
q-23 -50 -50.5 -83.5t-76.5 -76.5q-136 -121 -315.5 -191.5t-366.5 -70.5z" />
    <glyph glyph-name="uni599" unicode="&#xfb7b;&#x621;&#x621;" horiz-adv-x="1308" 
d="M656 -1053q-2 0 -98 1t-258 96q-151 95 -231 259q-62 127 -62 268q0 42 6 86q29 189 117.5 317.5t210.5 219t250 165.5q91 55 173.5 111.5t146.5 122.5q35 37 45 77q3 10 3 19q0 30 -29.5 61.5t-126.5 55.5q-69 16 -125 16q-68 0 -140 -32.5t-109 -119.5
q-24 -57 -24 -121q0 -33 6 -67l1 -12q0 -32 -25.5 -64t-70.5 -40l-14 -1q-99 0 -146 199q-15 64 -15 122q0 69 22 127q85 185 341 185q41 0 133.5 -11t227.5 -71q79 -34 156 -84.5t120 -122.5q28 -47 28 -105q0 -89 -58 -171q-47 -91 -47 -151q0 -18 11.5 -58.5t89.5 -66.5
t190 -26q28 0 47 -19t19 -47q0 -27 -19 -46t-47 -19q-145 0 -246 29.5t-166 79t-100 110.5l-90 -53q-124 -73 -231 -154t-173.5 -190.5t-68.5 -267.5q2 -148 82 -242q105 -126 281 -126q85 0 190 38t212.5 111t180.5 136q29 21 57 21q23 0 60 -21.5t78 -63.5q25 -26 44 -38
q-23 -50 -50.5 -83.5t-76.5 -76.5q-136 -121 -315.5 -191.5t-366.5 -70.5zM667 -343q-36 0 -84 25t-76 97q-15 39 -15 78q0 33 17 86.5t102 92.5q49 18 89 18q39 0 85.5 -26t70.5 -97q12 -36 12 -73q0 -35 -16.5 -88.5t-91.5 -90.5q-50 -22 -93 -22zM639 -765
q-34 0 -84 24.5t-83 96.5q-19 42 -19 84q0 30 16 82.5t114 92.5q43 14 78 14q41 0 86.5 -27.5t67.5 -96.5q11 -36 11 -72q0 -34 -15 -86t-81 -89q-48 -23 -91 -23zM994 -614q-34 0 -82 23t-77 95q-17 42 -17 85q0 30 14.5 81.5t94.5 90.5q50 20 91 20q37 0 83.5 -25
t72.5 -96q14 -40 14 -80q0 -31 -13.5 -82t-81.5 -88q-54 -24 -99 -24z" />
    <glyph glyph-name="uni600" unicode="&#xfe9e;&#x621;&#x621;" horiz-adv-x="1308" 
d="M656 -1053q-2 0 -98 1t-258 96q-151 95 -231 259q-62 127 -62 268q0 42 6 86q29 189 117.5 317.5t210.5 219t250 165.5q91 55 173.5 111.5t146.5 122.5q35 37 45 77q3 10 3 19q0 30 -29.5 61.5t-126.5 55.5q-69 16 -125 16q-68 0 -140 -32.5t-109 -119.5
q-24 -57 -24 -121q0 -33 6 -67l1 -12q0 -32 -25.5 -64t-70.5 -40l-14 -1q-99 0 -146 199q-15 64 -15 122q0 69 22 127q85 185 341 185q41 0 133.5 -11t227.5 -71q79 -34 156 -84.5t120 -122.5q28 -47 28 -105q0 -89 -58 -171q-47 -91 -47 -151q0 -18 11.5 -58.5t89.5 -66.5
t190 -26q28 0 47 -19t19 -47q0 -27 -19 -46t-47 -19q-145 0 -246 29.5t-166 79t-100 110.5l-90 -53q-124 -73 -231 -154t-173.5 -190.5t-68.5 -267.5q2 -148 82 -242q105 -126 281 -126q85 0 190 38t212.5 111t180.5 136q29 21 57 21q23 0 60 -21.5t78 -63.5q25 -26 44 -38
q-23 -50 -50.5 -83.5t-76.5 -76.5q-136 -121 -315.5 -191.5t-366.5 -70.5zM676 -579q-108 0 -158 107q-19 42 -19 87q0 28 7 58q24 75 93 110q44 23 89 23q27 0 77.5 -14.5t89.5 -107.5q15 -39 15 -78q0 -29 -12.5 -76.5t-82.5 -84.5q-53 -24 -99 -24z" />
    <glyph glyph-name="uni601" unicode="&#xfea6;&#x621;&#x621;" horiz-adv-x="1308" 
d="M656 -1053q-2 0 -98 1t-258 96q-151 95 -231 259q-62 127 -62 268q0 42 6 86q29 189 117.5 317.5t210.5 219t250 165.5q91 55 173.5 111.5t146.5 122.5q35 37 45 77q3 10 3 19q0 30 -29.5 61.5t-126.5 55.5q-69 16 -125 16q-68 0 -140 -32.5t-109 -119.5
q-24 -57 -24 -121q0 -33 6 -67l1 -12q0 -32 -25.5 -64t-70.5 -40l-14 -1q-99 0 -146 199q-15 64 -15 122q0 69 22 127q85 185 341 185q41 0 133.5 -11t227.5 -71q79 -34 156 -84.5t120 -122.5q28 -47 28 -105q0 -89 -58 -171q-47 -91 -47 -151q0 -18 11.5 -58.5t89.5 -66.5
t190 -26q28 0 47 -19t19 -47q0 -27 -19 -46t-47 -19q-145 0 -246 29.5t-166 79t-100 110.5l-90 -53q-124 -73 -231 -154t-173.5 -190.5t-68.5 -267.5q2 -148 82 -242q105 -126 281 -126q85 0 190 38t212.5 111t180.5 136q29 21 57 21q23 0 60 -21.5t78 -63.5q25 -26 44 -38
q-23 -50 -50.5 -83.5t-76.5 -76.5q-136 -121 -315.5 -191.5t-366.5 -70.5zM408 1106q-108 0 -158 107q-19 42 -19 87q0 28 7 58q24 75 93 110q44 23 89 23q27 0 77.5 -14.5t89.5 -107.5q15 -39 15 -78q0 -29 -12.5 -76.5t-82.5 -84.5q-53 -24 -99 -24z" />
    <glyph glyph-name="uni602" unicode="&#xfea4;&#xfbfd;&#x621;&#x621;&#x621;" horiz-adv-x="2099" 
d="M993 -648h-29q-215 1 -457 76q-182 64 -348 231q-102 109 -134 244q-19 79 -19 160q0 59 16.5 159t80.5 230q89 184 247 307q154 120 360 120q41 0 92.5 -15.5t67.5 -36.5q-178 -96 -323.5 -251.5t-205.5 -348.5q-25 -81 -25 -165q0 -116 47 -236q131 -307 535 -353
q57 -5 110 -5q257 0 450 119q151 92 151 228v7q-9 106 -198 147q-137 29 -289 29q-17 0 -31 2h-18q-41 0 -61 39q-6 11 -6 23q0 7 2 14q4 24 22 39.5t43 15.5q74 1 159 37t172 90q139 86 242.5 207t166.5 255q27 56 27 102q0 28 -19 73t-155 60q-28 2 -53 2
q-117 0 -195.5 -49.5t-102.5 -141.5q-10 -38 -10 -77q0 -55 19 -112q4 -12 4 -25q0 -25 -19 -57t-61 -46q-12 -4 -25 -4q-32 0 -75 31.5t-88 144.5q-37 93 -37 175q0 38 8 73q35 120 140.5 177.5t245.5 61.5l33 1q124 0 250 -34t220 -101t136 -154q20 -47 20 -96
q0 -131 -135 -293q-47 -90 -47 -149q0 -19 12.5 -59t90 -66t190.5 -26q27 0 46 -19t19 -47q0 -27 -19 -46t-46 -19q-139 0 -236.5 26.5t-162.5 72t-102 102.5q-82 -56 -173 -98q283 -46 392 -207q32 -55 32 -111q0 -24 -13.5 -77t-61.5 -108q-90 -101 -242 -155
q-258 -93 -627 -93z" />
    <glyph glyph-name="uni603" unicode="&#xfb7d;&#xfbfd;&#x621;&#x621;&#x621;" horiz-adv-x="2099" 
d="M993 -648h-29q-215 1 -457 76q-182 64 -348 231q-102 109 -134 244q-19 79 -19 160q0 59 16.5 159t80.5 230q89 184 247 307q154 120 360 120q41 0 92.5 -15.5t67.5 -36.5q-178 -96 -323.5 -251.5t-205.5 -348.5q-25 -81 -25 -165q0 -116 47 -236q131 -307 535 -353
q57 -5 110 -5q257 0 450 119q151 92 151 228v7q-9 106 -198 147q-137 29 -289 29q-17 0 -31 2h-18q-41 0 -61 39q-6 11 -6 23q0 7 2 14q4 24 22 39.5t43 15.5q74 1 159 37t172 90q139 86 242.5 207t166.5 255q27 56 27 102q0 28 -19 73t-155 60q-28 2 -53 2
q-117 0 -195.5 -49.5t-102.5 -141.5q-10 -38 -10 -77q0 -55 19 -112q4 -12 4 -25q0 -25 -19 -57t-61 -46q-12 -4 -25 -4q-32 0 -75 31.5t-88 144.5q-37 93 -37 175q0 38 8 73q35 120 140.5 177.5t245.5 61.5l33 1q124 0 250 -34t220 -101t136 -154q20 -47 20 -96
q0 -131 -135 -293q-47 -90 -47 -149q0 -19 12.5 -59t90 -66t190.5 -26q27 0 46 -19t19 -47q0 -27 -19 -46t-46 -19q-139 0 -236.5 26.5t-162.5 72t-102 102.5q-82 -56 -173 -98q283 -46 392 -207q32 -55 32 -111q0 -24 -13.5 -77t-61.5 -108q-90 -101 -242 -155
q-258 -93 -627 -93zM1803 -1478q-69 0 -119 42.5t-60 120.5q-2 17 -2 33q0 61 33.5 124t118.5 87q33 7 62 7q62 0 114.5 -41t66.5 -122q4 -21 4 -42q0 -57 -33.5 -119t-130.5 -85q-29 -5 -54 -5zM1900 -972q-71 0 -120 43q-58 53 -58 152q0 59 31.5 121t108.5 88q34 9 63 9
q57 0 111 -40.5t74 -122.5q7 -27 7 -54q0 -160 -174 -193q-23 -3 -43 -3zM1453 -1101q-65 0 -115 41t-62 119q-3 21 -3 41q0 56 29 117.5t109 86.5q38 9 70 9q59 0 111.5 -39t67.5 -120q5 -25 5 -49q0 -53 -30.5 -114.5t-122.5 -85.5q-32 -6 -59 -6z" />
    <glyph glyph-name="uni604" unicode="&#xfea0;&#xfe8c;&#xfe8c;&#xfbfd;&#x621;&#x621;&#x621;" horiz-adv-x="2099" 
d="M1880 -908q-108 0 -158 107q-19 42 -19 87q0 28 7 58q24 75 93 110q44 23 89 23q27 0 77.5 -14.5t89.5 -107.5q15 -39 15 -78q0 -29 -12.5 -76.5t-82.5 -84.5q-53 -24 -99 -24zM993 -648h-29q-215 1 -457 76q-182 64 -348 231q-102 109 -134 244q-19 79 -19 160
q0 59 16.5 159t80.5 230q89 184 247 307q154 120 360 120q41 0 92.5 -15.5t67.5 -36.5q-178 -96 -323.5 -251.5t-205.5 -348.5q-25 -81 -25 -165q0 -116 47 -236q131 -307 535 -353q57 -5 110 -5q257 0 450 119q151 92 151 228v7q-9 106 -198 147q-137 29 -289 29
q-17 0 -31 2h-18q-41 0 -61 39q-6 11 -6 23q0 7 2 14q4 24 22 39.5t43 15.5q74 1 159 37t172 90q139 86 242.5 207t166.5 255q27 56 27 102q0 28 -19 73t-155 60q-28 2 -53 2q-117 0 -195.5 -49.5t-102.5 -141.5q-10 -38 -10 -77q0 -55 19 -112q4 -12 4 -25q0 -25 -19 -57
t-61 -46q-12 -4 -25 -4q-32 0 -75 31.5t-88 144.5q-37 93 -37 175q0 38 8 73q35 120 140.5 177.5t245.5 61.5l33 1q124 0 250 -34t220 -101t136 -154q20 -47 20 -96q0 -131 -135 -293q-47 -90 -47 -149q0 -19 12.5 -59t90 -66t190.5 -26q27 0 46 -19t19 -47q0 -27 -19 -46
t-46 -19q-139 0 -236.5 26.5t-162.5 72t-102 102.5q-82 -56 -173 -98q283 -46 392 -207q32 -55 32 -111q0 -24 -13.5 -77t-61.5 -108q-90 -101 -242 -155q-258 -93 -627 -93z" />
    <glyph glyph-name="uni605" unicode="&#xfea8;&#xfe8c;&#xfe8c;&#xfbfd;&#x621;&#x621;&#x621;" horiz-adv-x="2099" 
d="M993 -648h-29q-215 1 -457 76q-182 64 -348 231q-102 109 -134 244q-19 79 -19 160q0 59 16.5 159t80.5 230q89 184 247 307q154 120 360 120q41 0 92.5 -15.5t67.5 -36.5q-178 -96 -323.5 -251.5t-205.5 -348.5q-25 -81 -25 -165q0 -116 47 -236q131 -307 535 -353
q57 -5 110 -5q257 0 450 119q151 92 151 228v7q-9 106 -198 147q-137 29 -289 29q-17 0 -31 2h-18q-41 0 -61 39q-6 11 -6 23q0 7 2 14q4 24 22 39.5t43 15.5q74 1 159 37t172 90q139 86 242.5 207t166.5 255q27 56 27 102q0 28 -19 73t-155 60q-28 2 -53 2
q-117 0 -195.5 -49.5t-102.5 -141.5q-10 -38 -10 -77q0 -55 19 -112q4 -12 4 -25q0 -25 -19 -57t-61 -46q-12 -4 -25 -4q-32 0 -75 31.5t-88 144.5q-37 93 -37 175q0 38 8 73q35 120 140.5 177.5t245.5 61.5l33 1q124 0 250 -34t220 -101t136 -154q20 -47 20 -96
q0 -131 -135 -293q-47 -90 -47 -149q0 -19 12.5 -59t90 -66t190.5 -26q27 0 46 -19t19 -47q0 -27 -19 -46t-46 -19q-139 0 -236.5 26.5t-162.5 72t-102 102.5q-82 -56 -173 -98q283 -46 392 -207q32 -55 32 -111q0 -24 -13.5 -77t-61.5 -108q-90 -101 -242 -155
q-258 -93 -627 -93zM1345 1221q-108 0 -158 107q-19 42 -19 87q0 28 7 58q24 75 93 110q44 23 89 23q27 0 77.5 -14.5t89.5 -107.5q15 -39 15 -78q0 -29 -12.5 -76.5t-82.5 -84.5q-53 -24 -99 -24z" />
    <glyph glyph-name="uni606" unicode="&#xfea4;&#xfbfd;&#x621;&#x621;&#x621;&#x621;" horiz-adv-x="1956" 
d="M689 -786q-89 0 -233 23t-282.5 152t-164.5 374q-1 21 -1 43q0 132 55.5 291t149.5 301.5t188 206.5q72 -5 113.5 -20.5t91.5 -45.5l18 -10q-11 -51 -44.5 -103t-78.5 -110q-75 -92 -142 -212.5t-82 -288.5q-2 -35 -2 -67q0 -205 85 -308.5t239 -103.5q143 0 296.5 69.5
t269.5 173.5q150 134 150 252q0 37 -19.5 76.5t-68 66t-100.5 26.5h-256q-27 0 -46.5 19t-19.5 46q0 28 19.5 47t46.5 19q74 1 159.5 37t172.5 90q139 86 242 207t166 255q28 55 28 101q0 29 -19 74t-156 60q-28 2 -53 2q-117 0 -195.5 -49.5t-102.5 -141.5q-9 -37 -9 -76
q0 -55 19 -113q3 -12 3 -23q0 -26 -18.5 -58.5t-61.5 -46.5q-12 -4 -24 -4q-32 0 -75.5 31.5t-87.5 144.5q-37 94 -37 177q0 37 7 71q36 120 141 177.5t245 61.5l33 1q124 0 250 -34t220.5 -101t135.5 -154q20 -47 20 -96q0 -133 -135 -293q-46 -89 -46 -148q0 -19 12 -59.5
t89.5 -66.5t190.5 -26q27 0 46.5 -19t19.5 -47q0 -27 -19.5 -46t-46.5 -19q-138 0 -236 26.5t-163 72t-102 102.5q-103 -70 -218 -118q218 -80 282 -187q35 -72 35 -141q0 -73 -56.5 -174.5t-225 -200t-378.5 -142.5q-119 -24 -234 -24z" />
    <glyph glyph-name="uni607" unicode="&#xfb7d;&#xfbfd;&#x621;&#x621;&#x621;&#x621;" horiz-adv-x="1950" 
d="M689 -786q-89 0 -233 23t-282.5 152t-164.5 374q-1 21 -1 43q0 132 55.5 291t149.5 301.5t188 206.5q72 -5 113.5 -20.5t91.5 -45.5l18 -10q-11 -51 -44.5 -103t-78.5 -110q-75 -92 -142 -212.5t-82 -288.5q-2 -35 -2 -67q0 -205 85 -308.5t239 -103.5q143 0 296.5 69.5
t269.5 173.5q150 134 150 252q0 37 -19.5 76.5t-68 66t-100.5 26.5h-256q-27 0 -46.5 19t-19.5 46q0 28 19.5 47t46.5 19q74 1 159.5 37t172.5 90q139 86 242 207t166 255q28 55 28 101q0 29 -19 74t-156 60q-28 2 -53 2q-117 0 -195.5 -49.5t-102.5 -141.5q-9 -37 -9 -76
q0 -55 19 -113q3 -12 3 -23q0 -26 -18.5 -58.5t-61.5 -46.5q-12 -4 -24 -4q-32 0 -75.5 31.5t-87.5 144.5q-37 94 -37 177q0 37 7 71q36 120 141 177.5t245 61.5l33 1q124 0 250 -34t220.5 -101t135.5 -154q20 -47 20 -96q0 -133 -135 -293q-46 -89 -46 -148q0 -19 12 -59.5
t89.5 -66.5t190.5 -26q27 0 46.5 -19t19.5 -47q0 -27 -19.5 -46t-46.5 -19q-138 0 -236 26.5t-163 72t-102 102.5q-103 -70 -218 -118q218 -80 282 -187q35 -72 35 -141q0 -73 -56.5 -174.5t-225 -200t-378.5 -142.5q-119 -24 -234 -24zM1803 -1478q-69 0 -119 42.5
t-60 120.5q-2 17 -2 33q0 61 33.5 124t118.5 87q33 7 62 7q62 0 114.5 -41t66.5 -122q4 -21 4 -42q0 -57 -33.5 -119t-130.5 -85q-29 -5 -54 -5zM1900 -972q-71 0 -120 43q-58 53 -58 152q0 59 31.5 121t108.5 88q34 9 63 9q57 0 111 -40.5t74 -122.5q7 -27 7 -54
q0 -160 -174 -193q-23 -3 -43 -3zM1453 -1101q-65 0 -115 41t-62 119q-3 21 -3 41q0 56 29 117.5t109 86.5q38 9 70 9q59 0 111.5 -39t67.5 -120q5 -25 5 -49q0 -53 -30.5 -114.5t-122.5 -85.5q-32 -6 -59 -6z" />
    <glyph glyph-name="uni608" unicode="&#xfea0;&#xfbfd;&#x621;&#x621;&#x621;&#x621;" horiz-adv-x="1939" 
d="M1622 -899q-108 0 -158 107q-19 42 -19 87q0 28 7 58q24 75 93 110q44 23 89 23q27 0 77.5 -14.5t89.5 -107.5q15 -39 15 -78q0 -29 -12.5 -76.5t-82.5 -84.5q-53 -24 -99 -24zM689 -786q-89 0 -233 23t-282.5 152t-164.5 374q-1 21 -1 43q0 132 55.5 291t149.5 301.5
t188 206.5q72 -5 113.5 -20.5t91.5 -45.5l18 -10q-11 -51 -44.5 -103t-78.5 -110q-75 -92 -142 -212.5t-82 -288.5q-2 -35 -2 -67q0 -205 85 -308.5t239 -103.5q143 0 296.5 69.5t269.5 173.5q150 134 150 252q0 37 -19.5 76.5t-68 66t-100.5 26.5h-256q-27 0 -46.5 19
t-19.5 46q0 28 19.5 47t46.5 19q74 1 159.5 37t172.5 90q139 86 242 207t166 255q28 55 28 101q0 29 -19 74t-156 60q-28 2 -53 2q-117 0 -195.5 -49.5t-102.5 -141.5q-9 -37 -9 -76q0 -55 19 -113q3 -12 3 -23q0 -26 -18.5 -58.5t-61.5 -46.5q-12 -4 -24 -4
q-32 0 -75.5 31.5t-87.5 144.5q-37 94 -37 177q0 37 7 71q36 120 141 177.5t245 61.5l33 1q124 0 250 -34t220.5 -101t135.5 -154q20 -47 20 -96q0 -133 -135 -293q-46 -89 -46 -148q0 -19 12 -59.5t89.5 -66.5t190.5 -26q27 0 46.5 -19t19.5 -47q0 -27 -19.5 -46t-46.5 -19
q-138 0 -236 26.5t-163 72t-102 102.5q-103 -70 -218 -118q218 -80 282 -187q35 -72 35 -141q0 -73 -56.5 -174.5t-225 -200t-378.5 -142.5q-119 -24 -234 -24z" />
    <glyph glyph-name="uni609" unicode="&#xfea8;&#xfbfd;&#x621;&#x621;&#x621;&#x621;" horiz-adv-x="1939" 
d="M689 -786q-89 0 -233 23t-282.5 152t-164.5 374q-1 21 -1 43q0 132 55.5 291t149.5 301.5t188 206.5q72 -5 113.5 -20.5t91.5 -45.5l18 -10q-11 -51 -44.5 -103t-78.5 -110q-75 -92 -142 -212.5t-82 -288.5q-2 -35 -2 -67q0 -205 85 -308.5t239 -103.5q143 0 296.5 69.5
t269.5 173.5q150 134 150 252q0 37 -19.5 76.5t-68 66t-100.5 26.5h-256q-27 0 -46.5 19t-19.5 46q0 28 19.5 47t46.5 19q74 1 159.5 37t172.5 90q139 86 242 207t166 255q28 55 28 101q0 29 -19 74t-156 60q-28 2 -53 2q-117 0 -195.5 -49.5t-102.5 -141.5q-9 -37 -9 -76
q0 -55 19 -113q3 -12 3 -23q0 -26 -18.5 -58.5t-61.5 -46.5q-12 -4 -24 -4q-32 0 -75.5 31.5t-87.5 144.5q-37 94 -37 177q0 37 7 71q36 120 141 177.5t245 61.5l33 1q124 0 250 -34t220.5 -101t135.5 -154q20 -47 20 -96q0 -133 -135 -293q-46 -89 -46 -148q0 -19 12 -59.5
t89.5 -66.5t190.5 -26q27 0 46.5 -19t19.5 -47q0 -27 -19.5 -46t-46.5 -19q-138 0 -236 26.5t-163 72t-102 102.5q-103 -70 -218 -118q218 -80 282 -187q35 -72 35 -141q0 -73 -56.5 -174.5t-225 -200t-378.5 -142.5q-119 -24 -234 -24zM1121 1250q-108 0 -158 107
q-19 42 -19 87q0 28 7 58q24 75 93 110q44 23 89 23q27 0 77.5 -14.5t89.5 -107.5q15 -39 15 -78q0 -29 -12.5 -76.5t-82.5 -84.5q-53 -24 -99 -24z" />
    <glyph glyph-name="uni610" unicode="&#xfea4;&#xfe8c;&#xfe8c;&#xfbfd;&#x621;&#x621;&#x621;&#x621;&#x621;" horiz-adv-x="2099" 
d="M764 -942q-41 0 -82 3q-241 21 -416.5 147.5t-236.5 343.5q-23 81 -23 173q0 154 64 338q82 218 220 398t298 313q53 51 135 51q80 0 225 -75q-40 -47 -113 -117q-101 -97 -222 -236q-262 -301 -300 -598q-7 -53 -7 -105q0 -95 29 -209t128 -204.5t271 -98.5h5
q114 0 233.5 48t215.5 130.5t141 184.5q25 58 25 116q0 45 -15 91q-66 166 -274 211q-69 15 -138 19q-66 7 -87 41q-10 18 -10 35q0 65 90 73h15q39 0 86 -8q14 8 32 8q74 1 159 37t173 90q139 86 242 207t166 255q27 56 27 102q0 28 -18.5 73t-155.5 60q-28 2 -53 2
q-117 0 -195.5 -49.5t-102.5 -141.5q-9 -37 -9 -76q0 -55 19 -113q3 -12 3 -23q0 -26 -18.5 -58.5t-61.5 -46.5q-12 -4 -24 -4q-32 0 -75.5 31.5t-87.5 144.5q-37 94 -37 177q0 37 7 71q35 120 140.5 177.5t245.5 61.5l33 1q124 0 250 -34t220.5 -101t135.5 -154
q20 -47 20 -96q0 -131 -135 -293q-46 -89 -46 -148q0 -19 12 -59.5t89.5 -66.5t190.5 -26q27 0 46.5 -19t19.5 -47q0 -27 -19.5 -46t-46.5 -19q-138 0 -236 26.5t-163 72t-102 102.5q-173 -118 -376 -171q53 -27 101 -59q217 -152 217 -341q0 -5 -2 -50.5t-37 -120.5
q-63 -132 -207 -226t-325 -140q-139 -35 -273 -35z" />
    <glyph glyph-name="uni611" unicode="&#xfb7d;&#xfe8c;&#xfe8c;&#xfbfd;&#x621;&#x621;&#x621;&#x621;&#x621;" horiz-adv-x="2099" 
d="M764 -942q-41 0 -82 3q-241 21 -416.5 147.5t-236.5 343.5q-23 81 -23 173q0 154 64 338q82 218 220 398t298 313q53 51 135 51q80 0 225 -75q-40 -47 -113 -117q-101 -97 -222 -236q-262 -301 -300 -598q-7 -53 -7 -105q0 -95 29 -209t128 -204.5t271 -98.5h5
q114 0 233.5 48t215.5 130.5t141 184.5q25 58 25 116q0 45 -15 91q-66 166 -274 211q-69 15 -138 19q-66 7 -87 41q-10 18 -10 35q0 65 90 73h15q39 0 86 -8q14 8 32 8q74 1 159 37t173 90q139 86 242 207t166 255q27 56 27 102q0 28 -18.5 73t-155.5 60q-28 2 -53 2
q-117 0 -195.5 -49.5t-102.5 -141.5q-9 -37 -9 -76q0 -55 19 -113q3 -12 3 -23q0 -26 -18.5 -58.5t-61.5 -46.5q-12 -4 -24 -4q-32 0 -75.5 31.5t-87.5 144.5q-37 94 -37 177q0 37 7 71q35 120 140.5 177.5t245.5 61.5l33 1q124 0 250 -34t220.5 -101t135.5 -154
q20 -47 20 -96q0 -131 -135 -293q-46 -89 -46 -148q0 -19 12 -59.5t89.5 -66.5t190.5 -26q27 0 46.5 -19t19.5 -47q0 -27 -19.5 -46t-46.5 -19q-138 0 -236 26.5t-163 72t-102 102.5q-173 -118 -376 -171q53 -27 101 -59q217 -152 217 -341q0 -5 -2 -50.5t-37 -120.5
q-63 -132 -207 -226t-325 -140q-139 -35 -273 -35zM1803 -1553q-69 0 -119 42.5t-60 120.5q-2 17 -2 33q0 61 33.5 124t118.5 87q33 7 62 7q62 0 114.5 -41t66.5 -122q4 -21 4 -42q0 -57 -33.5 -119t-130.5 -85q-29 -5 -54 -5zM1900 -1047q-71 0 -120 43q-58 53 -58 152
q0 59 31.5 121t108.5 88q34 9 63 9q57 0 111 -40.5t74 -122.5q7 -27 7 -54q0 -160 -174 -193q-23 -3 -43 -3zM1453 -1176q-65 0 -115 41t-62 119q-3 21 -3 41q0 56 29 117.5t109 86.5q38 9 70 9q59 0 111.5 -39t67.5 -120q5 -25 5 -49q0 -53 -30.5 -114.5t-122.5 -85.5
q-32 -6 -59 -6z" />
    <glyph glyph-name="uni612" unicode="&#xfea0;&#xfe8c;&#xfe8c;&#xfbfd;&#x621;&#x621;&#x621;&#x621;&#x621;" horiz-adv-x="2099" 
d="M1826 -458q-108 0 -158 107q-19 42 -19 87q0 28 7 58q24 75 93 110q44 23 89 23q27 0 77.5 -14.5t89.5 -107.5q15 -39 15 -78q0 -29 -12.5 -76.5t-82.5 -84.5q-53 -24 -99 -24zM764 -942q-41 0 -82 3q-241 21 -416.5 147.5t-236.5 343.5q-23 81 -23 173q0 154 64 338
q82 218 220 398t298 313q53 51 135 51q80 0 225 -75q-40 -47 -113 -117q-101 -97 -222 -236q-262 -301 -300 -598q-7 -53 -7 -105q0 -95 29 -209t128 -204.5t271 -98.5h5q114 0 233.5 48t215.5 130.5t141 184.5q25 58 25 116q0 45 -15 91q-66 166 -274 211q-69 15 -138 19
q-66 7 -87 41q-10 18 -10 35q0 65 90 73h15q39 0 86 -8q14 8 32 8q74 1 159 37t173 90q139 86 242 207t166 255q27 56 27 102q0 28 -18.5 73t-155.5 60q-28 2 -53 2q-117 0 -195.5 -49.5t-102.5 -141.5q-9 -37 -9 -76q0 -55 19 -113q3 -12 3 -23q0 -26 -18.5 -58.5
t-61.5 -46.5q-12 -4 -24 -4q-32 0 -75.5 31.5t-87.5 144.5q-37 94 -37 177q0 37 7 71q35 120 140.5 177.5t245.5 61.5l33 1q124 0 250 -34t220.5 -101t135.5 -154q20 -47 20 -96q0 -131 -135 -293q-46 -89 -46 -148q0 -19 12 -59.5t89.5 -66.5t190.5 -26q27 0 46.5 -19
t19.5 -47q0 -27 -19.5 -46t-46.5 -19q-138 0 -236 26.5t-163 72t-102 102.5q-173 -118 -376 -171q53 -27 101 -59q217 -152 217 -341q0 -5 -2 -50.5t-37 -120.5q-63 -132 -207 -226t-325 -140q-139 -35 -273 -35z" />
    <glyph glyph-name="uni613" unicode="&#xfea8;&#xfe8c;&#xfe8c;&#xfbfd;&#x621;&#x621;&#x621;&#x621;&#x621;" horiz-adv-x="2099" 
d="M764 -942q-41 0 -82 3q-241 21 -416.5 147.5t-236.5 343.5q-23 81 -23 173q0 154 64 338q82 218 220 398t298 313q53 51 135 51q80 0 225 -75q-40 -47 -113 -117q-101 -97 -222 -236q-262 -301 -300 -598q-7 -53 -7 -105q0 -95 29 -209t128 -204.5t271 -98.5h5
q114 0 233.5 48t215.5 130.5t141 184.5q25 58 25 116q0 45 -15 91q-66 166 -274 211q-69 15 -138 19q-66 7 -87 41q-10 18 -10 35q0 65 90 73h15q39 0 86 -8q14 8 32 8q74 1 159 37t173 90q139 86 242 207t166 255q27 56 27 102q0 28 -18.5 73t-155.5 60q-28 2 -53 2
q-117 0 -195.5 -49.5t-102.5 -141.5q-9 -37 -9 -76q0 -55 19 -113q3 -12 3 -23q0 -26 -18.5 -58.5t-61.5 -46.5q-12 -4 -24 -4q-32 0 -75.5 31.5t-87.5 144.5q-37 94 -37 177q0 37 7 71q35 120 140.5 177.5t245.5 61.5l33 1q124 0 250 -34t220.5 -101t135.5 -154
q20 -47 20 -96q0 -131 -135 -293q-46 -89 -46 -148q0 -19 12 -59.5t89.5 -66.5t190.5 -26q27 0 46.5 -19t19.5 -47q0 -27 -19.5 -46t-46.5 -19q-138 0 -236 26.5t-163 72t-102 102.5q-173 -118 -376 -171q53 -27 101 -59q217 -152 217 -341q0 -5 -2 -50.5t-37 -120.5
q-63 -132 -207 -226t-325 -140q-139 -35 -273 -35zM1316 1167q-108 0 -158 107q-19 42 -19 87q0 28 7 58q24 75 93 110q44 23 89 23q27 0 77.5 -14.5t89.5 -107.5q15 -39 15 -78q0 -29 -12.5 -76.5t-82.5 -84.5q-53 -24 -99 -24z" />
    <glyph glyph-name="uni614" unicode="&#xfea4;&#xfbfd;&#x621;&#x621;&#x621;&#x621;&#x621;&#x621;" horiz-adv-x="1801" 
d="M668 -707q-51 0 -104 5q-412 50 -518 362q-39 119 -39 248q0 22 4 110t42 226.5t82 234.5q48 104 134 116q15 2 32 2q77 0 187 -46q-17 -50 -46 -119q-45 -102 -89.5 -238t-54.5 -296v-29q0 -215 86 -321q92 -112 233 -112q120 0 231 73.5t154 208.5q12 44 12 79
q0 47 -29 92t-102 72.5t-152 38.5q-16 0 -30 7q-10 4 -14 10q-21 20 -21 48t19 47t46 19q74 1 159.5 37t172.5 90q139 86 242.5 207t165.5 255q28 56 28 103q0 28 -19 72.5t-156 59.5q-28 2 -53 2q-117 0 -195.5 -49.5t-101.5 -141.5q-10 -38 -10 -78q0 -54 19 -111
q4 -12 4 -24q0 -26 -19 -58t-61 -46q-12 -4 -25 -4q-32 0 -75 31.5t-88 144.5q-37 93 -37 175q0 38 8 73q35 120 140 178q113 62 279 62q123 0 249.5 -34t220.5 -101t135 -154q20 -47 20 -97q0 -131 -134 -292q-47 -89 -47 -148q0 -19 12.5 -59.5t90 -66.5t189.5 -26
q27 0 46.5 -19t19.5 -47q0 -27 -19.5 -46t-46.5 -19q-138 0 -236 26.5t-162.5 72t-102.5 102.5q-142 -97 -305 -151q154 -44 244 -174q41 -65 41 -134q0 -35 -20.5 -107t-125 -164t-262.5 -142q-115 -36 -248 -36z" />
    <glyph glyph-name="uni615" unicode="&#xfb7d;&#xfbfd;&#x621;&#x621;&#x621;&#x621;&#x621;&#x621;" horiz-adv-x="1801" 
d="M668 -707q-51 0 -104 5q-412 50 -518 362q-39 119 -39 248q0 22 4 110t42 226.5t82 234.5q48 104 134 116q15 2 32 2q77 0 187 -46q-17 -50 -46 -119q-45 -102 -89.5 -238t-54.5 -296v-29q0 -215 86 -321q92 -112 233 -112q120 0 231 73.5t154 208.5q12 44 12 79
q0 47 -29 92t-102 72.5t-152 38.5q-16 0 -30 7q-10 4 -14 10q-21 20 -21 48t19 47t46 19q74 1 159.5 37t172.5 90q139 86 242.5 207t165.5 255q28 56 28 103q0 28 -19 72.5t-156 59.5q-28 2 -53 2q-117 0 -195.5 -49.5t-101.5 -141.5q-10 -38 -10 -78q0 -54 19 -111
q4 -12 4 -24q0 -26 -19 -58t-61 -46q-12 -4 -25 -4q-32 0 -75 31.5t-88 144.5q-37 93 -37 175q0 38 8 73q35 120 140 178q113 62 279 62q123 0 249.5 -34t220.5 -101t135 -154q20 -47 20 -97q0 -131 -134 -292q-47 -89 -47 -148q0 -19 12.5 -59.5t90 -66.5t189.5 -26
q27 0 46.5 -19t19.5 -47q0 -27 -19.5 -46t-46.5 -19q-138 0 -236 26.5t-162.5 72t-102.5 102.5q-142 -97 -305 -151q154 -44 244 -174q41 -65 41 -134q0 -35 -20.5 -107t-125 -164t-262.5 -142q-115 -36 -248 -36zM1539 -1424q-69 0 -119 42.5t-60 120.5q-2 17 -2 33
q0 61 33.5 124t118.5 87q33 7 62 7q62 0 114.5 -41t66.5 -122q4 -21 4 -42q0 -57 -33.5 -119t-130.5 -85q-29 -5 -54 -5zM1636 -918q-71 0 -120 43q-58 53 -58 152q0 59 31.5 121t108.5 88q34 9 63 9q57 0 111 -40.5t74 -122.5q7 -27 7 -54q0 -160 -174 -193q-23 -3 -43 -3z
M1189 -1047q-65 0 -115 41t-62 119q-3 21 -3 41q0 56 29 117.5t109 86.5q38 9 70 9q59 0 111.5 -39t67.5 -120q5 -25 5 -49q0 -53 -30.5 -114.5t-122.5 -85.5q-32 -6 -59 -6z" />
    <glyph glyph-name="uni616" unicode="&#xfea0;&#xfbfd;&#x621;&#x621;&#x621;&#x621;&#x621;&#x621;" horiz-adv-x="1801" 
d="M1571 -487q-108 0 -158 107q-19 42 -19 87q0 28 7 58q24 75 93 110q44 23 89 23q27 0 77.5 -14.5t89.5 -107.5q15 -39 15 -78q0 -29 -12.5 -76.5t-82.5 -84.5q-53 -24 -99 -24zM668 -707q-51 0 -104 5q-412 50 -518 362q-39 119 -39 248q0 22 4 110t42 226.5t82 234.5
q48 104 134 116q15 2 32 2q77 0 187 -46q-17 -50 -46 -119q-45 -102 -89.5 -238t-54.5 -296v-29q0 -215 86 -321q92 -112 233 -112q120 0 231 73.5t154 208.5q12 44 12 79q0 47 -29 92t-102 72.5t-152 38.5q-16 0 -30 7q-10 4 -14 10q-21 20 -21 48t19 47t46 19
q74 1 159.5 37t172.5 90q139 86 242.5 207t165.5 255q28 56 28 103q0 28 -19 72.5t-156 59.5q-28 2 -53 2q-117 0 -195.5 -49.5t-101.5 -141.5q-10 -38 -10 -78q0 -54 19 -111q4 -12 4 -24q0 -26 -19 -58t-61 -46q-12 -4 -25 -4q-32 0 -75 31.5t-88 144.5q-37 93 -37 175
q0 38 8 73q35 120 140 178q113 62 279 62q123 0 249.5 -34t220.5 -101t135 -154q20 -47 20 -97q0 -131 -134 -292q-47 -89 -47 -148q0 -19 12.5 -59.5t90 -66.5t189.5 -26q27 0 46.5 -19t19.5 -47q0 -27 -19.5 -46t-46.5 -19q-138 0 -236 26.5t-162.5 72t-102.5 102.5
q-142 -97 -305 -151q154 -44 244 -174q41 -65 41 -134q0 -35 -20.5 -107t-125 -164t-262.5 -142q-115 -36 -248 -36z" />
    <glyph glyph-name="uni617" unicode="&#xfea8;&#xfbfd;&#x621;&#x621;&#x621;&#x621;&#x621;&#x621;" horiz-adv-x="1801" 
d="M668 -707q-51 0 -104 5q-412 50 -518 362q-39 119 -39 248q0 22 4 110t42 226.5t82 234.5q48 104 134 116q15 2 32 2q77 0 187 -46q-17 -50 -46 -119q-45 -102 -89.5 -238t-54.5 -296v-29q0 -215 86 -321q92 -112 233 -112q120 0 231 73.5t154 208.5q12 44 12 79
q0 47 -29 92t-102 72.5t-152 38.5q-16 0 -30 7q-10 4 -14 10q-21 20 -21 48t19 47t46 19q74 1 159.5 37t172.5 90q139 86 242.5 207t165.5 255q28 56 28 103q0 28 -19 72.5t-156 59.5q-28 2 -53 2q-117 0 -195.5 -49.5t-101.5 -141.5q-10 -38 -10 -78q0 -54 19 -111
q4 -12 4 -24q0 -26 -19 -58t-61 -46q-12 -4 -25 -4q-32 0 -75 31.5t-88 144.5q-37 93 -37 175q0 38 8 73q35 120 140 178q113 62 279 62q123 0 249.5 -34t220.5 -101t135 -154q20 -47 20 -97q0 -131 -134 -292q-47 -89 -47 -148q0 -19 12.5 -59.5t90 -66.5t189.5 -26
q27 0 46.5 -19t19.5 -47q0 -27 -19.5 -46t-46.5 -19q-138 0 -236 26.5t-162.5 72t-102.5 102.5q-142 -97 -305 -151q154 -44 244 -174q41 -65 41 -134q0 -35 -20.5 -107t-125 -164t-262.5 -142q-115 -36 -248 -36zM1167 1205q-108 0 -158 107q-19 42 -19 87q0 28 7 58
q24 75 93 110q44 23 89 23q27 0 77.5 -14.5t89.5 -107.5q15 -39 15 -78q0 -29 -12.5 -76.5t-82.5 -84.5q-53 -24 -99 -24z" />
    <glyph glyph-name="uni618" unicode="&#xfea4;&#xfbfd;&#x621;&#x621;&#x621;&#x621;&#x621;&#x621;&#x621;" horiz-adv-x="1701" 
d="M692 -803q-373 0 -569 298q-115 175 -115 409q0 15 3.5 150.5t178.5 417.5q46 65 114 65q74 0 199 -59q-17 -38 -39 -84q-52 -105 -105 -238t-74 -277q-6 -50 -6 -98q0 -81 22.5 -179t103 -178.5t223.5 -94.5l26 -1q92 0 189 48.5t170 134t89 182.5q2 20 2 38
q0 97 -68.5 156t-177 83t-195.5 30l-12 1q-23 4 -38.5 22t-15.5 42q0 28 19.5 47t46.5 19q74 1 159.5 37t172.5 90q139 86 242 207t166 255q28 55 28 101q0 29 -19 74t-156 60q-28 2 -53 2q-117 0 -195.5 -49.5t-101.5 -141.5q-10 -38 -10 -78q0 -54 19 -111q4 -12 4 -24
q0 -26 -19 -58t-62 -46q-12 -4 -24 -4q-32 0 -75 31.5t-88 144.5q-37 93 -37 175q0 38 8 73q35 120 140 178q113 62 279 62q123 0 249.5 -34t220.5 -101t135 -154q20 -47 20 -97q0 -131 -134 -292q-47 -89 -47 -148q0 -19 12.5 -59.5t90 -66.5t189.5 -26q27 0 46.5 -19
t19.5 -47q0 -27 -19.5 -46t-46.5 -19q-138 0 -236 26.5t-162.5 72t-102.5 102.5q-125 -85 -268 -138q91 -22 181.5 -70.5t155 -118t75.5 -155.5l1 -21q0 -92 -67 -185t-177 -168q-216 -148 -485 -148z" />
    <glyph glyph-name="uni619" unicode="&#xfb7d;&#xfbfd;&#x621;&#x621;&#x621;&#x621;&#x621;&#x621;&#x621;" horiz-adv-x="1701" 
d="M692 -803q-373 0 -569 298q-115 175 -115 409q0 15 3.5 150.5t178.5 417.5q46 65 114 65q74 0 199 -59q-17 -38 -39 -84q-52 -105 -105 -238t-74 -277q-6 -50 -6 -98q0 -81 22.5 -179t103 -178.5t223.5 -94.5l26 -1q92 0 189 48.5t170 134t89 182.5q2 20 2 38
q0 97 -68.5 156t-177 83t-195.5 30l-12 1q-23 4 -38.5 22t-15.5 42q0 28 19.5 47t46.5 19q74 1 159.5 37t172.5 90q139 86 242 207t166 255q28 55 28 101q0 29 -19 74t-156 60q-28 2 -53 2q-117 0 -195.5 -49.5t-101.5 -141.5q-10 -38 -10 -78q0 -54 19 -111q4 -12 4 -24
q0 -26 -19 -58t-62 -46q-12 -4 -24 -4q-32 0 -75 31.5t-88 144.5q-37 93 -37 175q0 38 8 73q35 120 140 178q113 62 279 62q123 0 249.5 -34t220.5 -101t135 -154q20 -47 20 -97q0 -131 -134 -292q-47 -89 -47 -148q0 -19 12.5 -59.5t90 -66.5t189.5 -26q27 0 46.5 -19
t19.5 -47q0 -27 -19.5 -46t-46.5 -19q-138 0 -236 26.5t-162.5 72t-102.5 102.5q-125 -85 -268 -138q91 -22 181.5 -70.5t155 -118t75.5 -155.5l1 -21q0 -92 -67 -185t-177 -168q-216 -148 -485 -148zM1649 -1418q-46 0 -96 31t-72 107q-9 33 -9 66q0 43 21.5 102t101.5 95
q49 18 90 18q44 0 96 -30t77 -108q12 -36 12 -73q0 -40 -21.5 -98.5t-113.5 -94.5q-47 -15 -86 -15zM1674 -904q-49 0 -97.5 32.5t-67.5 107.5q-9 33 -9 66q0 40 19.5 97.5t91.5 93.5q47 20 89 20q41 0 94.5 -29.5t84.5 -107.5q16 -41 16 -82q0 -36 -20.5 -93t-125.5 -94
q-41 -11 -75 -11zM1252 -1095q-45 0 -95 30t-73 106q-11 37 -11 74q0 39 17.5 95.5t92.5 91.5q53 21 97 21q41 0 92.5 -28t78.5 -105q14 -40 14 -80q0 -37 -19 -94t-106 -94q-48 -17 -88 -17z" />
    <glyph glyph-name="uni620" unicode="&#xfea0;&#xfbfd;&#x621;&#x621;&#x621;&#x621;&#x621;&#x621;&#x621;" horiz-adv-x="1701" 
d="M1646 -510q-108 0 -158 107q-19 42 -19 87q0 28 7 58q24 75 93 110q44 23 89 23q27 0 77.5 -14.5t89.5 -107.5q15 -39 15 -78q0 -29 -12.5 -76.5t-82.5 -84.5q-53 -24 -99 -24zM692 -803q-373 0 -569 298q-115 175 -115 409q0 15 3.5 150.5t178.5 417.5q46 65 114 65
q74 0 199 -59q-17 -38 -39 -84q-52 -105 -105 -238t-74 -277q-6 -50 -6 -98q0 -81 22.5 -179t103 -178.5t223.5 -94.5l26 -1q92 0 189 48.5t170 134t89 182.5q2 20 2 38q0 97 -68.5 156t-177 83t-195.5 30l-12 1q-23 4 -38.5 22t-15.5 42q0 28 19.5 47t46.5 19
q74 1 159.5 37t172.5 90q139 86 242 207t166 255q28 55 28 101q0 29 -19 74t-156 60q-28 2 -53 2q-117 0 -195.5 -49.5t-101.5 -141.5q-10 -38 -10 -78q0 -54 19 -111q4 -12 4 -24q0 -26 -19 -58t-62 -46q-12 -4 -24 -4q-32 0 -75 31.5t-88 144.5q-37 93 -37 175q0 38 8 73
q35 120 140 178q113 62 279 62q123 0 249.5 -34t220.5 -101t135 -154q20 -47 20 -97q0 -131 -134 -292q-47 -89 -47 -148q0 -19 12.5 -59.5t90 -66.5t189.5 -26q27 0 46.5 -19t19.5 -47q0 -27 -19.5 -46t-46.5 -19q-138 0 -236 26.5t-162.5 72t-102.5 102.5
q-125 -85 -268 -138q91 -22 181.5 -70.5t155 -118t75.5 -155.5l1 -21q0 -92 -67 -185t-177 -168q-216 -148 -485 -148z" />
    <glyph glyph-name="uni621" unicode="&#xfea8;&#xfbfd;&#x621;&#x621;&#x621;&#x621;&#x621;&#x621;&#x621;" horiz-adv-x="1698" 
d="M692 -803q-373 0 -569 298q-115 175 -115 409q0 15 3.5 150.5t178.5 417.5q46 65 114 65q74 0 199 -59q-17 -38 -39 -84q-52 -105 -105 -238t-74 -277q-6 -50 -6 -98q0 -81 22.5 -179t103 -178.5t223.5 -94.5l26 -1q92 0 189 48.5t170 134t89 182.5q2 20 2 38
q0 97 -68.5 156t-177 83t-195.5 30l-12 1q-23 4 -38.5 22t-15.5 42q0 28 19.5 47t46.5 19q74 1 159.5 37t172.5 90q139 86 242 207t166 255q28 55 28 101q0 29 -19 74t-156 60q-28 2 -53 2q-117 0 -195.5 -49.5t-101.5 -141.5q-10 -38 -10 -78q0 -54 19 -111q4 -12 4 -24
q0 -26 -19 -58t-62 -46q-12 -4 -24 -4q-32 0 -75 31.5t-88 144.5q-37 93 -37 175q0 38 8 73q35 120 140 178q113 62 279 62q123 0 249.5 -34t220.5 -101t135 -154q20 -47 20 -97q0 -131 -134 -292q-47 -89 -47 -148q0 -19 12.5 -59.5t90 -66.5t189.5 -26q27 0 46.5 -19
t19.5 -47q0 -27 -19.5 -46t-46.5 -19q-138 0 -236 26.5t-162.5 72t-102.5 102.5q-125 -85 -268 -138q91 -22 181.5 -70.5t155 -118t75.5 -155.5l1 -21q0 -92 -67 -185t-177 -168q-216 -148 -485 -148zM1167 1135q-108 0 -158 107q-19 42 -19 87q0 28 7 58q24 75 93 110
q44 23 89 23q27 0 77.5 -14.5t89.5 -107.5q15 -39 15 -78q0 -29 -12.5 -76.5t-82.5 -84.5q-53 -24 -99 -24z" />
    <glyph glyph-name="uni622" unicode="&#xfea4;&#xfbfd;&#x621;&#x621;&#x621;&#x621;&#x621;" horiz-adv-x="1300" 
d="M727 -620q-102 0 -248 19t-283 115q-81 58 -138 162q-51 93 -51 205l1 28q16 164 119 291q120 149 318 193q82 17 153 23q57 6 106 15.5t91 31.5q156 91 212 200q33 64 33 119q0 40 -28 99.5t-158 73.5q-28 2 -53 2q-117 0 -195.5 -49.5t-102.5 -141.5q-10 -38 -10 -77
q0 -55 19 -112q4 -12 4 -25q0 -25 -18.5 -57t-61.5 -46q-12 -4 -25 -4q-32 0 -75 31.5t-87 144.5q-38 94 -38 176q0 37 8 72q35 120 140.5 177.5t245.5 61.5l33 1q124 0 249 -34q203 -56 295 -158q78 -88 78 -193q0 -17 -8.5 -89t-124.5 -201q-47 -90 -47 -150
q0 -19 12.5 -60t90.5 -67t191 -26q27 0 46.5 -19t19.5 -47q0 -27 -19.5 -46t-46.5 -19q-146 0 -247 29.5t-165.5 79t-100.5 110.5l-4 9q-106 -51 -204.5 -73.5t-184.5 -32.5q-127 -19 -175 -94q-31 -49 -31 -103q0 -30 17.5 -90.5t113.5 -124.5q90 -54 239 -61q33 -2 68 -2
q118 0 266 22t295 62t235 79q173 78 367 193q16 -84 16 -143q0 -25 -6.5 -69.5t-54.5 -88.5t-138 -94q-139 -71 -335 -129.5t-409 -85.5q-107 -13 -209 -13z" />
    <glyph glyph-name="uni623" unicode="&#xfb7d;&#xfbfd;&#x621;&#x621;&#x621;&#x621;&#x621;" horiz-adv-x="1300" 
d="M727 -620q-102 0 -248 19t-283 115q-81 58 -138 162q-51 93 -51 205l1 28q16 164 119 291q120 149 318 193q82 17 153 23q57 6 106 15.5t91 31.5q156 91 212 200q33 64 33 119q0 40 -28 99.5t-158 73.5q-28 2 -53 2q-117 0 -195.5 -49.5t-102.5 -141.5q-10 -38 -10 -77
q0 -55 19 -112q4 -12 4 -25q0 -25 -18.5 -57t-61.5 -46q-12 -4 -25 -4q-32 0 -75 31.5t-87 144.5q-38 94 -38 176q0 37 8 72q35 120 140.5 177.5t245.5 61.5l33 1q124 0 249 -34q203 -56 295 -158q78 -88 78 -193q0 -17 -8.5 -89t-124.5 -201q-47 -90 -47 -150
q0 -19 12.5 -60t90.5 -67t191 -26q27 0 46.5 -19t19.5 -47q0 -27 -19.5 -46t-46.5 -19q-146 0 -247 29.5t-165.5 79t-100.5 110.5l-4 9q-106 -51 -204.5 -73.5t-184.5 -32.5q-127 -19 -175 -94q-31 -49 -31 -103q0 -30 17.5 -90.5t113.5 -124.5q90 -54 239 -61q33 -2 68 -2
q118 0 266 22t295 62t235 79q173 78 367 193q16 -84 16 -143q0 -25 -6.5 -69.5t-54.5 -88.5t-138 -94q-139 -71 -335 -129.5t-409 -85.5q-107 -13 -209 -13zM795 -1189q-28 0 -80 15t-96 114q-14 37 -14 72q0 43 27.5 98t97.5 93q46 25 94 25q24 0 73.5 -12t96.5 -110
q20 -48 20 -91q0 -39 -26.5 -93t-99.5 -89q-46 -22 -93 -22zM445 -1555q-34 0 -90 17.5t-93 111.5q-9 31 -9 60q0 44 28.5 99.5t95.5 93.5q48 26 98 26q20 0 66 -9.5t95 -100.5q26 -57 26 -105q0 -38 -26 -91t-104 -85q-43 -17 -87 -17zM283 -1120q-32 0 -85 16.5t-95 118.5
q-11 32 -11 63q0 44 30 98.5t101 90.5q46 24 94 24q25 0 74.5 -13.5t94.5 -112.5q16 -42 16 -79q0 -43 -28.5 -97.5t-103.5 -88.5q-43 -20 -87 -20z" />
    <glyph glyph-name="uni624" unicode="&#xfea0;&#xfbfd;&#x621;&#x621;&#x621;&#x621;&#x621;" horiz-adv-x="1300" 
d="M643 -278q-108 0 -158 107q-19 42 -19 87q0 28 7 58q24 75 93 110q44 23 89 23q27 0 77.5 -14.5t89.5 -107.5q15 -39 15 -78q0 -29 -12.5 -76.5t-82.5 -84.5q-53 -24 -99 -24zM727 -620q-102 0 -248 19t-283 115q-81 58 -138 162q-51 93 -51 205l1 28q16 164 119 291
q120 149 318 193q82 17 153 23q57 6 106 15.5t91 31.5q156 91 212 200q33 64 33 119q0 40 -28 99.5t-158 73.5q-28 2 -53 2q-117 0 -195.5 -49.5t-102.5 -141.5q-10 -38 -10 -77q0 -55 19 -112q4 -12 4 -25q0 -25 -18.5 -57t-61.5 -46q-12 -4 -25 -4q-32 0 -75 31.5
t-87 144.5q-38 94 -38 176q0 37 8 72q35 120 140.5 177.5t245.5 61.5l33 1q124 0 249 -34q203 -56 295 -158q78 -88 78 -193q0 -17 -8.5 -89t-124.5 -201q-47 -90 -47 -150q0 -19 12.5 -60t90.5 -67t191 -26q27 0 46.5 -19t19.5 -47q0 -27 -19.5 -46t-46.5 -19
q-146 0 -247 29.5t-165.5 79t-100.5 110.5l-4 9q-106 -51 -204.5 -73.5t-184.5 -32.5q-127 -19 -175 -94q-31 -49 -31 -103q0 -30 17.5 -90.5t113.5 -124.5q90 -54 239 -61q33 -2 68 -2q118 0 266 22t295 62t235 79q173 78 367 193q16 -84 16 -143q0 -25 -6.5 -69.5
t-54.5 -88.5t-138 -94q-139 -71 -335 -129.5t-409 -85.5q-107 -13 -209 -13z" />
    <glyph glyph-name="uni625" unicode="&#xfea8;&#xfbfd;&#x621;&#x621;&#x621;&#x621;&#x621;" horiz-adv-x="1300" 
d="M727 -620q-102 0 -248 19t-283 115q-81 58 -138 162q-51 93 -51 205l1 28q16 164 119 291q120 149 318 193q82 17 153 23q57 6 106 15.5t91 31.5q156 91 212 200q33 64 33 119q0 40 -28 99.5t-158 73.5q-28 2 -53 2q-117 0 -195.5 -49.5t-102.5 -141.5q-10 -38 -10 -77
q0 -55 19 -112q4 -12 4 -25q0 -25 -18.5 -57t-61.5 -46q-12 -4 -25 -4q-32 0 -75 31.5t-87 144.5q-38 94 -38 176q0 37 8 72q35 120 140.5 177.5t245.5 61.5l33 1q124 0 249 -34q203 -56 295 -158q78 -88 78 -193q0 -17 -8.5 -89t-124.5 -201q-47 -90 -47 -150
q0 -19 12.5 -60t90.5 -67t191 -26q27 0 46.5 -19t19.5 -47q0 -27 -19.5 -46t-46.5 -19q-146 0 -247 29.5t-165.5 79t-100.5 110.5l-4 9q-106 -51 -204.5 -73.5t-184.5 -32.5q-127 -19 -175 -94q-31 -49 -31 -103q0 -30 17.5 -90.5t113.5 -124.5q90 -54 239 -61q33 -2 68 -2
q118 0 266 22t295 62t235 79q173 78 367 193q16 -84 16 -143q0 -25 -6.5 -69.5t-54.5 -88.5t-138 -94q-139 -71 -335 -129.5t-409 -85.5q-107 -13 -209 -13zM562 1221q-108 0 -158 107q-19 42 -19 87q0 28 7 58q24 75 93 110q44 23 89 23q27 0 77.5 -14.5t89.5 -107.5
q15 -39 15 -78q0 -29 -12.5 -76.5t-82.5 -84.5q-53 -24 -99 -24z" />
    <glyph glyph-name="uni626" unicode="&#xfea4;&#xfbfd;&#x621;&#x621;&#x621;&#x621;&#x621;&#x621;&#x621;&#x621;" horiz-adv-x="2200" 
d="M993 -648h-29q-215 1 -457 76q-182 64 -348 231q-102 109 -134 244q-19 79 -19 160q0 59 16.5 159t80.5 230q89 184 247 307q154 120 360 120q41 0 92.5 -15.5t67.5 -36.5q-178 -96 -323.5 -251.5t-205.5 -348.5q-25 -81 -25 -165q0 -116 47 -236q131 -307 535 -353
q57 -5 110 -5q257 0 450 119q151 92 151 228v7q-9 106 -198 147q-137 29 -289 29q-17 0 -31 2h-18q-41 0 -61 39q-6 11 -6 23q0 7 2 14q4 24 22 39.5t43 15.5q74 1 159 37t172 90q139 86 242.5 207t166.5 255q27 56 27 102q0 28 -19 73t-155 60q-28 2 -53 2
q-117 0 -195.5 -49.5t-102.5 -141.5q-10 -38 -10 -77q0 -55 19 -112q4 -12 4 -25q0 -25 -19 -57t-61 -46q-12 -4 -25 -4q-32 0 -75 31.5t-88 144.5q-37 93 -37 175q0 38 8 73q35 120 140.5 177.5t245.5 61.5l33 1q124 0 250 -34t220 -101t136 -154q20 -47 20 -96
q0 -52 -32 -133t-120 -180q-167 -192 -411 -308q283 -46 392 -207q32 -55 32 -111q0 -24 -13.5 -77t-61.5 -108q-90 -101 -242 -155q-258 -93 -627 -93z" />
    <glyph glyph-name="uni627" unicode="&#xfb7d;&#xfbfd;&#x621;&#x621;&#x621;&#x621;&#x621;&#x621;&#x621;&#x621;" horiz-adv-x="2200" 
d="M993 -648h-29q-215 1 -457 76q-182 64 -348 231q-102 109 -134 244q-19 79 -19 160q0 59 16.5 159t80.5 230q89 184 247 307q154 120 360 120q41 0 92.5 -15.5t67.5 -36.5q-178 -96 -323.5 -251.5t-205.5 -348.5q-25 -81 -25 -165q0 -116 47 -236q131 -307 535 -353
q57 -5 110 -5q257 0 450 119q151 92 151 228v7q-9 106 -198 147q-137 29 -289 29q-17 0 -31 2h-18q-41 0 -61 39q-6 11 -6 23q0 7 2 14q4 24 22 39.5t43 15.5q74 1 159 37t172 90q139 86 242.5 207t166.5 255q27 56 27 102q0 28 -19 73t-155 60q-28 2 -53 2
q-117 0 -195.5 -49.5t-102.5 -141.5q-10 -38 -10 -77q0 -55 19 -112q4 -12 4 -25q0 -25 -19 -57t-61 -46q-12 -4 -25 -4q-32 0 -75 31.5t-88 144.5q-37 93 -37 175q0 38 8 73q35 120 140.5 177.5t245.5 61.5l33 1q124 0 250 -34t220 -101t136 -154q20 -47 20 -96
q0 -52 -32 -133t-120 -180q-167 -192 -411 -308q283 -46 392 -207q32 -55 32 -111q0 -24 -13.5 -77t-61.5 -108q-90 -101 -242 -155q-258 -93 -627 -93zM1803 -1478q-69 0 -119 42.5t-60 120.5q-2 17 -2 33q0 61 33.5 124t118.5 87q33 7 62 7q62 0 114.5 -41t66.5 -122
q4 -21 4 -42q0 -57 -33.5 -119t-130.5 -85q-29 -5 -54 -5zM1900 -972q-71 0 -120 43q-58 53 -58 152q0 59 31.5 121t108.5 88q34 9 63 9q57 0 111 -40.5t74 -122.5q7 -27 7 -54q0 -160 -174 -193q-23 -3 -43 -3zM1453 -1101q-65 0 -115 41t-62 119q-3 21 -3 41
q0 56 29 117.5t109 86.5q38 9 70 9q59 0 111.5 -39t67.5 -120q5 -25 5 -49q0 -53 -30.5 -114.5t-122.5 -85.5q-32 -6 -59 -6z" />
    <glyph glyph-name="uni628" unicode="&#xfea0;&#xfbfd;&#x621;&#x621;&#x621;&#x621;&#x621;&#x621;&#x621;&#x621;" horiz-adv-x="2200" 
d="M1880 -908q-108 0 -158 107q-19 42 -19 87q0 28 7 58q24 75 93 110q44 23 89 23q27 0 77.5 -14.5t89.5 -107.5q15 -39 15 -78q0 -29 -12.5 -76.5t-82.5 -84.5q-53 -24 -99 -24zM993 -648h-29q-215 1 -457 76q-182 64 -348 231q-102 109 -134 244q-19 79 -19 160
q0 59 16.5 159t80.5 230q89 184 247 307q154 120 360 120q41 0 92.5 -15.5t67.5 -36.5q-178 -96 -323.5 -251.5t-205.5 -348.5q-25 -81 -25 -165q0 -116 47 -236q131 -307 535 -353q57 -5 110 -5q257 0 450 119q151 92 151 228v7q-9 106 -198 147q-137 29 -289 29
q-17 0 -31 2h-18q-41 0 -61 39q-6 11 -6 23q0 7 2 14q4 24 22 39.5t43 15.5q74 1 159 37t172 90q139 86 242.5 207t166.5 255q27 56 27 102q0 28 -19 73t-155 60q-28 2 -53 2q-117 0 -195.5 -49.5t-102.5 -141.5q-10 -38 -10 -77q0 -55 19 -112q4 -12 4 -25q0 -25 -19 -57
t-61 -46q-12 -4 -25 -4q-32 0 -75 31.5t-88 144.5q-37 93 -37 175q0 38 8 73q35 120 140.5 177.5t245.5 61.5l33 1q124 0 250 -34t220 -101t136 -154q20 -47 20 -96q0 -52 -32 -133t-120 -180q-167 -192 -411 -308q283 -46 392 -207q32 -55 32 -111q0 -24 -13.5 -77
t-61.5 -108q-90 -101 -242 -155q-258 -93 -627 -93z" />
    <glyph glyph-name="uni629" unicode="&#xfea8;&#xfbfd;&#x621;&#x621;&#x621;&#x621;&#x621;&#x621;&#x621;&#x621;" horiz-adv-x="2200" 
d="M993 -648h-29q-215 1 -457 76q-182 64 -348 231q-102 109 -134 244q-19 79 -19 160q0 59 16.5 159t80.5 230q89 184 247 307q154 120 360 120q41 0 92.5 -15.5t67.5 -36.5q-178 -96 -323.5 -251.5t-205.5 -348.5q-25 -81 -25 -165q0 -116 47 -236q131 -307 535 -353
q57 -5 110 -5q257 0 450 119q151 92 151 228v7q-9 106 -198 147q-137 29 -289 29q-17 0 -31 2h-18q-41 0 -61 39q-6 11 -6 23q0 7 2 14q4 24 22 39.5t43 15.5q74 1 159 37t172 90q139 86 242.5 207t166.5 255q27 56 27 102q0 28 -19 73t-155 60q-28 2 -53 2
q-117 0 -195.5 -49.5t-102.5 -141.5q-10 -38 -10 -77q0 -55 19 -112q4 -12 4 -25q0 -25 -19 -57t-61 -46q-12 -4 -25 -4q-32 0 -75 31.5t-88 144.5q-37 93 -37 175q0 38 8 73q35 120 140.5 177.5t245.5 61.5l33 1q124 0 250 -34t220 -101t136 -154q20 -47 20 -96
q0 -52 -32 -133t-120 -180q-167 -192 -411 -308q283 -46 392 -207q32 -55 32 -111q0 -24 -13.5 -77t-61.5 -108q-90 -101 -242 -155q-258 -93 -627 -93zM1439 1224q-108 0 -158 107q-19 42 -19 87q0 28 7 58q24 75 93 110q44 23 89 23q27 0 77.5 -14.5t89.5 -107.5
q15 -39 15 -78q0 -29 -12.5 -76.5t-82.5 -84.5q-53 -24 -99 -24z" />
    <glyph glyph-name="uni630" unicode="&#xfea3;&#xfe8c;&#xfe8c;&#xfbfd;&#x621;&#x621;&#x621;&#x621;" horiz-adv-x="1999" 
d="M689 -786q-89 0 -233 23t-282.5 152t-164.5 374q-1 21 -1 43q0 132 55.5 291t149.5 301.5t188 206.5q72 -5 113.5 -20.5t91.5 -45.5l18 -10q-11 -51 -44.5 -103t-78.5 -110q-75 -92 -142 -212.5t-82 -288.5q-2 -35 -2 -67q0 -205 85 -308.5t239 -103.5q143 0 296.5 69.5
t269.5 173.5q150 134 150 252q0 37 -19.5 76.5t-68 66t-100.5 26.5h-256q-27 0 -46.5 19t-19.5 46q0 28 19.5 47t46.5 19q74 1 159.5 37t172.5 90q139 86 242 207t166 255q28 55 28 101q0 29 -19 74t-156 60q-28 2 -53 2q-117 0 -195.5 -49.5t-102.5 -141.5q-9 -37 -9 -76
q0 -55 19 -113q3 -12 3 -23q0 -26 -18.5 -58.5t-61.5 -46.5q-12 -4 -24 -4q-32 0 -75.5 31.5t-87.5 144.5q-37 94 -37 177q0 37 7 71q36 120 141 177.5t245 61.5l33 1q124 0 250 -34t220.5 -101t135.5 -154q20 -47 20 -96q0 -52 -32 -133t-120 -180q-183 -211 -456 -328
q218 -80 282 -187q35 -72 35 -141q0 -73 -56.5 -174.5t-225 -200t-378.5 -142.5q-119 -24 -234 -24z" />
    <glyph glyph-name="uni631" unicode="&#xfb7c;&#xfe8c;&#xfe8c;&#xfbfd;&#x621;&#x621;&#x621;&#x621;" horiz-adv-x="1999" 
d="M689 -786q-89 0 -233 23t-282.5 152t-164.5 374q-1 21 -1 43q0 132 55.5 291t149.5 301.5t188 206.5q72 -5 113.5 -20.5t91.5 -45.5l18 -10q-11 -51 -44.5 -103t-78.5 -110q-75 -92 -142 -212.5t-82 -288.5q-2 -35 -2 -67q0 -205 85 -308.5t239 -103.5q143 0 296.5 69.5
t269.5 173.5q150 134 150 252q0 37 -19.5 76.5t-68 66t-100.5 26.5h-256q-27 0 -46.5 19t-19.5 46q0 28 19.5 47t46.5 19q74 1 159.5 37t172.5 90q139 86 242 207t166 255q28 55 28 101q0 29 -19 74t-156 60q-28 2 -53 2q-117 0 -195.5 -49.5t-102.5 -141.5q-9 -37 -9 -76
q0 -55 19 -113q3 -12 3 -23q0 -26 -18.5 -58.5t-61.5 -46.5q-12 -4 -24 -4q-32 0 -75.5 31.5t-87.5 144.5q-37 94 -37 177q0 37 7 71q36 120 141 177.5t245 61.5l33 1q124 0 250 -34t220.5 -101t135.5 -154q20 -47 20 -96q0 -52 -32 -133t-120 -180q-183 -211 -456 -328
q218 -80 282 -187q35 -72 35 -141q0 -73 -56.5 -174.5t-225 -200t-378.5 -142.5q-119 -24 -234 -24zM1640 -1504q-69 0 -119 42.5t-60 120.5q-2 17 -2 33q0 61 33.5 124t118.5 87q33 7 62 7q62 0 114.5 -41t66.5 -122q4 -21 4 -42q0 -57 -33.5 -119t-130.5 -85
q-29 -5 -54 -5zM1737 -998q-71 0 -120 43q-58 53 -58 152q0 59 31.5 121t108.5 88q34 9 63 9q57 0 111 -40.5t74 -122.5q7 -27 7 -54q0 -160 -174 -193q-23 -3 -43 -3zM1290 -1127q-65 0 -115 41t-62 119q-3 21 -3 41q0 56 29 117.5t109 86.5q38 9 70 9q59 0 111.5 -39
t67.5 -120q5 -25 5 -49q0 -53 -30.5 -114.5t-122.5 -85.5q-32 -6 -59 -6z" />
    <glyph glyph-name="uni632" unicode="&#xfe9f;&#xfe8c;&#xfe8c;&#xfbfd;&#x621;&#x621;&#x621;&#x621;" horiz-adv-x="1999" 
d="M1619 -908q-108 0 -158 107q-19 42 -19 87q0 28 7 58q24 75 93 110q44 23 89 23q27 0 77.5 -14.5t89.5 -107.5q15 -39 15 -78q0 -29 -12.5 -76.5t-82.5 -84.5q-53 -24 -99 -24zM689 -786q-89 0 -233 23t-282.5 152t-164.5 374q-1 21 -1 43q0 132 55.5 291t149.5 301.5
t188 206.5q72 -5 113.5 -20.5t91.5 -45.5l18 -10q-11 -51 -44.5 -103t-78.5 -110q-75 -92 -142 -212.5t-82 -288.5q-2 -35 -2 -67q0 -205 85 -308.5t239 -103.5q143 0 296.5 69.5t269.5 173.5q150 134 150 252q0 37 -19.5 76.5t-68 66t-100.5 26.5h-256q-27 0 -46.5 19
t-19.5 46q0 28 19.5 47t46.5 19q74 1 159.5 37t172.5 90q139 86 242 207t166 255q28 55 28 101q0 29 -19 74t-156 60q-28 2 -53 2q-117 0 -195.5 -49.5t-102.5 -141.5q-9 -37 -9 -76q0 -55 19 -113q3 -12 3 -23q0 -26 -18.5 -58.5t-61.5 -46.5q-12 -4 -24 -4
q-32 0 -75.5 31.5t-87.5 144.5q-37 94 -37 177q0 37 7 71q36 120 141 177.5t245 61.5l33 1q124 0 250 -34t220.5 -101t135.5 -154q20 -47 20 -96q0 -52 -32 -133t-120 -180q-183 -211 -456 -328q218 -80 282 -187q35 -72 35 -141q0 -73 -56.5 -174.5t-225 -200
t-378.5 -142.5q-119 -24 -234 -24z" />
    <glyph glyph-name="uni633" unicode="&#xfea7;&#xfe8c;&#xfe8c;&#xfbfd;&#x621;&#x621;&#x621;&#x621;" horiz-adv-x="1999" 
d="M689 -786q-89 0 -233 23t-282.5 152t-164.5 374q-1 21 -1 43q0 132 55.5 291t149.5 301.5t188 206.5q72 -5 113.5 -20.5t91.5 -45.5l18 -10q-11 -51 -44.5 -103t-78.5 -110q-75 -92 -142 -212.5t-82 -288.5q-2 -35 -2 -67q0 -205 85 -308.5t239 -103.5q143 0 296.5 69.5
t269.5 173.5q150 134 150 252q0 37 -19.5 76.5t-68 66t-100.5 26.5h-256q-27 0 -46.5 19t-19.5 46q0 28 19.5 47t46.5 19q74 1 159.5 37t172.5 90q139 86 242 207t166 255q28 55 28 101q0 29 -19 74t-156 60q-28 2 -53 2q-117 0 -195.5 -49.5t-102.5 -141.5q-9 -37 -9 -76
q0 -55 19 -113q3 -12 3 -23q0 -26 -18.5 -58.5t-61.5 -46.5q-12 -4 -24 -4q-32 0 -75.5 31.5t-87.5 144.5q-37 94 -37 177q0 37 7 71q36 120 141 177.5t245 61.5l33 1q124 0 250 -34t220.5 -101t135.5 -154q20 -47 20 -96q0 -52 -32 -133t-120 -180q-183 -211 -456 -328
q218 -80 282 -187q35 -72 35 -141q0 -73 -56.5 -174.5t-225 -200t-378.5 -142.5q-119 -24 -234 -24zM1110 1218q-108 0 -158 107q-19 42 -19 87q0 28 7 58q24 75 93 110q44 23 89 23q27 0 77.5 -14.5t89.5 -107.5q15 -39 15 -78q0 -29 -12.5 -76.5t-82.5 -84.5
q-53 -24 -99 -24z" />
    <glyph glyph-name="uni634" unicode="&#xfea3;&#xfe8c;&#xfe8c;&#xfbfd;&#x621;&#x621;&#x621;&#x621;&#x621;" horiz-adv-x="2200" 
d="M764 -942q-41 0 -82 3q-241 21 -416.5 147.5t-236.5 343.5q-23 81 -23 173q0 154 64 338q82 218 220 398t298 313q53 51 135 51q80 0 225 -75q-40 -47 -113 -117q-101 -97 -222 -236q-262 -301 -300 -598q-7 -53 -7 -105q0 -95 29 -209t128 -204.5t271 -98.5h5
q114 0 233.5 48t215.5 130.5t141 184.5q25 58 25 116q0 45 -15 91q-66 166 -274 211q-69 15 -138 19q-66 7 -87 41q-10 18 -10 35q0 65 90 73h15q39 0 86 -8q14 8 32 8q74 1 159 37t173 90q139 86 242 207t166 255q27 56 27 102q0 28 -18.5 73t-155.5 60q-28 2 -53 2
q-117 0 -195.5 -49.5t-102.5 -141.5q-9 -37 -9 -76q0 -55 19 -113q3 -12 3 -23q0 -26 -18.5 -58.5t-61.5 -46.5q-12 -4 -24 -4q-32 0 -75.5 31.5t-87.5 144.5q-37 94 -37 177q0 37 7 71q35 120 140.5 177.5t245.5 61.5l33 1q124 0 250 -34t220.5 -101t135.5 -154
q20 -47 20 -96q0 -52 -32 -133t-120 -180q-116 -134 -274.5 -234t-339.5 -147q53 -27 101 -59q217 -152 217 -341q0 -5 -2 -50.5t-37 -120.5q-63 -132 -207 -226t-325 -140q-139 -35 -273 -35z" />
    </font>
</defs>
</svg>
